За последнюю неделю опубликовано 122 новых материалов.
Инструкция новичку Путеводитель по форуму Прокси для Telegram Показать подсказки , это бомба!

Скачать Кокаин / Blow (2001) BDRip 720p | D, P, P2, A бесплатно через торрент

  • Поучаствуй (в качестве покупателя) в любых пяти совместных покупках (кроме завершённых и "Моментальных") и получи группу "Новичок" навсегда -> ссылка на раздел
  • Получай до 480 рублей за каждого приглашенного пользователя!
    представляем Вам очередное расширение партнерской программы, подробности описаны тут -> ссылка
  • 90% материалов доступно к скачиванию после простой регистрации!
    Если же ты хочешь скачивать материалы без требования оставлять отзывы то получи группу "Новичок", 10 способов повышения описаны тут -> ссылка
  • К сожалению количество битых ссылок растет и мы уже не можем их оперативно восстанавливать поэтому просим помощи у каждого нашего пользователя.
    С сегодняшнего дня, за каждую восстановленную ссылку мы заплатим Вам.
    Подробнее тут -> ссылка
  • Перенесем твои заслуги с другого ресурса!
    Мы понимаем как сложно прокачивать аккаунты на форумах, вроде раскачал аккаунт, а тут появляется ресурс в 100 раз круче но тоже с системой прокачки и снова качать аккаунт...
    Предлагаем вам перенести Ваши заслуги на другом подобном ресурсе к нам.
    Подробности описаны тут -> ссылка
  • Вы можете получать по 2.5% с каждой покупки и продажи на маркете! Подробности в теме Партнёрская программа
Если Вы не хотите скачивать, Вы всегда можетепосмотретьонлайн, просто нажмите кнопку ниже :

Открыть плеер

Torrent_Bot

Торрент-Бот
Бот форума
4 Окт 2016
82
186
20




Информацияофильме
Русское название: Кокаин
Оригинальное название: Blow
Год выхода: 2001
Жанр: Драма, криминал, биография, реальные события
Режиссер: Тед Демме
Выпущено: США, Apostle, Avery Pix, New Line Cinema, Spanky Pictures
Продолжительность: 02:03:36
В ролях:Джонни Депп, Пенелопа Крус, Франка Потенте, Рэйчел Гриффитс, Пол Рубенс, Хорди Молья, Клифф Кёртис, Мигель Сандовал, Итан Сапли, Рэй Лиотта, Кевин Гейдж, Макс Перлих, Джесси Джеймс, Мигель Перез, Дэн Ферро, Тони Амендола, Боб Голдтуэйт, Майкл Туччи, Монит Мазур, Лола Глаудини, Дженнифер Хименес, Эмма Робертс, Джейми Кинг, Чарльз Ноуленд, Памела Эбди, Лиза Клер, Джон Харингтон Блэнд, Джимми Бурк, Брантли Буш, Кевин Чэпмен, Доук, Тед Демме, Кристал Эриксон, Дэниэл Эскобар, Трэйси Фалько, Жан-Карло Феликс, Лазаро Гараррага, Брайан Гудман, Ванесса Грэйсон, Элиф Гуэртин, Джош Херман, Фэйт Хувер, Брэд Хант, Патрик Хаст

Перевод: Двухголосый закадровый, Многоголосый закадровый, Одноголосый закадровый, Дублированный



Сюжетфильма

Джордж Джанг, обыкновенный парень из пригорода, решил осуществить американскую мечту своим способом — стать первым американцем, импортирующим кокаин в больших объемах. Он создал себе рынок сбыта, подсадив на кокаин самых знаменитых людей Америки. Вскоре он уже купался в деньгах и роскоши, о которых многие только мечтают. Ему удавалось обводить вокруг пальца не только ФБР, но и страшных колумбийских наркодельцов. Однако настоящий кайф он получал от опасности и риска, нуждаясь в адреналине больше чем в наркотиках...



Файл
Качество: BDRip 720p (исходник Blu-ray-Remux)
Видео: 1280x544, ~4 670 Кбит/сек, 23,976 кадр/сек, AVC, x264, [email protected], 0.280 Бит/[Пиксели*Кадры], 2pass
Аудио 1: AC-3, 448 Кбит/сек, 6 канала(ов), 48,0 КГц -Двухголосый закадровый, R5
Аудио 2: AC-3, 448 Кбит/сек, 6 канала(ов), 48,0 КГц -Двухголосый закадровый, D2Lab
Аудио 3: AC-3, 192 Кбит/сек, 2 канала(ов), 48,0 КГц -Двухголосый закадровый, НТВ+
Аудио 4: AC-3, 448 Кбит/сек, 6 канала(ов), 48,0 КГц -Двухголосый закадровый
Аудио 5: AC-3, 192 Кбит/сек, 2 канала(ов), 48,0 КГц -Дублированный
Аудио 6: AC-3, 384 Кбит/сек, 6 канала(ов), 48,0 КГц -Многоголосый закадровый, НТН - Украина
Аудио 7: AC-3, 448 Кбит/сек, 6 канала(ов), 48,0 КГц -Многоголосый закадровый
Аудио 8: AC-3, 448 Кбит/сек, 6 канала(ов), 48,0 КГц -Одноголосый закадровый, А. Гаврилов
Аудио 9: AC-3, 448 Кбит/сек, 6 канала(ов), 48,0 КГц -Одноголосый закадровый, А. Наследников
Аудио 10: AC-3, 448 Кбит/сек, 6 канала(ов), 48,0 КГц -Одноголосый закадровый, Ю. Живов
Аудио 11: AC-3, 640 Кбит/сек, 6 канала(ов), 48,0 КГц -English

Чаптеры: есть
Субтитры: Русские




Скриншоты
MediaInfo
Format : Matroska
Format version : Version 2
File size : 7.94 GiB
Duration : 2h 3mn
Overall bit rate : 9 214 Kbps
Movie name : Кокаин.(2001).BDRip.720p.[denis100]
Encoded date : UTC 2013-11-06 14:17:00
Writing application : mkvmerge v5.8.0 ('No Sleep / Pillow') built on Sep 2 2012 15:37:04
Writing library : libebml v1.2.3 + libmatroska v1.3.0

Video
ID : 1
Format : AVC
Format/Info : Advanced Video Codec
Format profile : [email protected]
Format settings, CABAC : Yes
Format settings, ReFrames : 12 frames
Codec ID : V_MPEG4/ISO/AVC
Duration : 2h 3mn
Bit rate : 4 670 Kbps
Width : 1 280 pixels
Height : 544 pixels
Display aspect ratio : 2.35:1
Frame rate mode : Constant
Frame rate : 23.976 fps
Color space : YUV
Chroma subsampling : 4:2:0
Bit depth : 8 bits
Scan type : Progressive
Bits/(Pixel*Frame) : 0.280
Stream size : 3.87 GiB (49%)
Title : Кокаин.(2001).BDRip.720p.[denis100]
Writing library : x264 core 140 r2377 1ca7bb9
Encoding settings : cabac=1 / ref=12 / deblock=1:-3:-3 / analyse=0x3:0x133 / me=umh / subme=11 / psy=1 / psy_rd=1.00:0.10 / mixed_ref=1 / me_range=32 / chroma_me=1 / trellis=2 / 8x8dct=1 / cqm=0 / deadzone=21,11 / fast_pskip=0 / chroma_qp_offset=-3 / threads=6 / lookahead_threads=1 / sliced_threads=0 / nr=0 / decimate=0 / interlaced=0 / bluray_compat=0 / constrained_intra=0 / bframes=7 / b_pyramid=2 / b_adapt=2 / b_bias=0 / direct=3 / weightb=1 / open_gop=0 / weightp=2 / keyint=240 / keyint_min=23 / scenecut=40 / intra_refresh=0 / rc=2pass / mbtree=0 / bitrate=4670 / ratetol=1.0 / qcomp=0.60 / qpmin=0 / qpmax=69 / qpstep=4 / cplxblur=20.0 / qblur=0.5 / ip_ratio=1.40 / pb_ratio=1.30 / aq=1:0.90
Language : English
Default : Yes
Forced : No

Audio #1
ID : 2
Format : AC-3
Format/Info : Audio Coding 3
Mode extension : CM (complete main)
Format settings, Endianness : Big
Codec ID : A_AC3
Duration : 2h 3mn
Bit rate mode : Constant
Bit rate : 448 Kbps
Channel count : 6 channels
Channel positions : Front: L C R, Side: L R, LFE
Sampling rate : 48.0 KHz
Bit depth : 16 bits
Compression mode : Lossy
Stream size : 396 MiB (5%)
Title : Двухголосый закадровый, R5
Language : Russian
Default : No
Forced : No

Audio #2
ID : 3
Format : AC-3
Format/Info : Audio Coding 3
Mode extension : CM (complete main)
Format settings, Endianness : Big
Codec ID : A_AC3
Duration : 2h 3mn
Bit rate mode : Constant
Bit rate : 448 Kbps
Channel count : 6 channels
Channel positions : Front: L C R, Side: L R, LFE
Sampling rate : 48.0 KHz
Bit depth : 16 bits
Compression mode : Lossy
Stream size : 396 MiB (5%)
Title : Двухголосый закадровый, D2Lab
Language : Russian
Default : No
Forced : No

Audio #3
ID : 4
Format : AC-3
Format/Info : Audio Coding 3
Mode extension : CM (complete main)
Format settings, Endianness : Big
Codec ID : A_AC3
Duration : 2h 3mn
Bit rate mode : Constant
Bit rate : 192 Kbps
Channel count : 2 channels
Channel positions : Front: L R
Sampling rate : 48.0 KHz
Bit depth : 16 bits
Compression mode : Lossy
Stream size : 170 MiB (2%)
Title : Двухголосый закадровый, НТВ+
Language : Russian
Default : No
Forced : No

Audio #4
ID : 5
Format : AC-3
Format/Info : Audio Coding 3
Mode extension : CM (complete main)
Format settings, Endianness : Big
Codec ID : A_AC3
Duration : 2h 3mn
Bit rate mode : Constant
Bit rate : 448 Kbps
Channel count : 6 channels
Channel positions : Front: L C R, Side: L R, LFE
Sampling rate : 48.0 KHz
Bit depth : 16 bits
Compression mode : Lossy
Stream size : 396 MiB (5%)
Title : Двухголосый закадровый
Language : Russian
Default : No
Forced : No

Audio #5
ID : 6
Format : AC-3
Format/Info : Audio Coding 3
Mode extension : CM (complete main)
Format settings, Endianness : Big
Codec ID : A_AC3
Duration : 2h 3mn
Bit rate mode : Constant
Bit rate : 192 Kbps
Channel count : 2 channels
Channel positions : Front: L R
Sampling rate : 48.0 KHz
Bit depth : 16 bits
Compression mode : Lossy
Stream size : 170 MiB (2%)
Title : Дублированный
Language : Russian
Default : Yes
Forced : No

Audio #6
ID : 7
Format : AC-3
Format/Info : Audio Coding 3
Mode extension : CM (complete main)
Format settings, Endianness : Big
Codec ID : A_AC3
Duration : 2h 3mn
Bit rate mode : Constant
Bit rate : 384 Kbps
Channel count : 6 channels
Channel positions : Front: L C R, Side: L R, LFE
Sampling rate : 48.0 KHz
Bit depth : 16 bits
Compression mode : Lossy
Stream size : 339 MiB (4%)
Title : Многоголосый закадровый, НТН - Украина
Language : Ukrainian
Default : No
Forced : No

Audio #7
ID : 8
Format : AC-3
Format/Info : Audio Coding 3
Mode extension : CM (complete main)
Format settings, Endianness : Big
Codec ID : A_AC3
Duration : 2h 3mn
Bit rate mode : Constant
Bit rate : 448 Kbps
Channel count : 6 channels
Channel positions : Front: L C R, Side: L R, LFE
Sampling rate : 48.0 KHz
Bit depth : 16 bits
Compression mode : Lossy
Stream size : 396 MiB (5%)
Title : Многоголосый закадровый
Language : Russian
Default : No
Forced : No

Audio #8
ID : 9
Format : AC-3
Format/Info : Audio Coding 3
Mode extension : CM (complete main)
Format settings, Endianness : Big
Codec ID : A_AC3
Duration : 2h 3mn
Bit rate mode : Constant
Bit rate : 448 Kbps
Channel count : 6 channels
Channel positions : Front: L C R, Side: L R, LFE
Sampling rate : 48.0 KHz
Bit depth : 16 bits
Compression mode : Lossy
Stream size : 396 MiB (5%)
Title : Одноголосый закадровый, А. Гаврилов
Language : Russian
Default : No
Forced : No

Audio #9
ID : 10
Format : AC-3
Format/Info : Audio Coding 3
Mode extension : CM (complete main)
Format settings, Endianness : Big
Codec ID : A_AC3
Duration : 2h 3mn
Bit rate mode : Constant
Bit rate : 448 Kbps
Channel count : 6 channels
Channel positions : Front: L C R, Side: L R, LFE
Sampling rate : 48.0 KHz
Bit depth : 16 bits
Compression mode : Lossy
Stream size : 396 MiB (5%)
Title : Одноголосый закадровый, А. Наследников
Language : Russian
Default : No
Forced : No

Audio #10
ID : 11
Format : AC-3
Format/Info : Audio Coding 3
Mode extension : CM (complete main)
Format settings, Endianness : Big
Codec ID : A_AC3
Duration : 2h 3mn
Bit rate mode : Constant
Bit rate : 448 Kbps
Channel count : 6 channels
Channel positions : Front: L C R, Side: L R, LFE
Sampling rate : 48.0 KHz
Bit depth : 16 bits
Compression mode : Lossy
Stream size : 396 MiB (5%)
Title : Одноголосый закадровый, Ю. Живов
Language : Russian
Default : No
Forced : No

Audio #11
ID : 12
Format : AC-3
Format/Info : Audio Coding 3
Mode extension : CM (complete main)
Format settings, Endianness : Big
Codec ID : A_AC3
Duration : 2h 3mn
Bit rate mode : Constant
Bit rate : 640 Kbps
Channel count : 6 channels
Channel positions : Front: L C R, Side: L R, LFE
Sampling rate : 48.0 KHz
Bit depth : 16 bits
Compression mode : Lossy
Stream size : 565 MiB (7%)
Title : English
Language : English
Default : No
Forced : No

Text
ID : 13
Format : UTF-8
Codec ID : S_TEXT/UTF8
Codec ID/Info : UTF-8 Plain Text
Title : Русские
Language : Russian
Default : No
Forced : No

Menu
00:00:00.000 : en:00:00:00.000
00:03:03.516 : en:00:03:03.516
00:07:00.002 : en:00:07:00.002
00:13:09.121 : en:00:13:09.121
00:18:51.630 : en:00:18:51.630
00:25:08.131 : en:00:25:08.131
00:27:45.497 : en:00:27:45.497
00:32:00.835 : en:00:32:00.835
00:36:56.047 : en:00:36:56.047
00:44:00.804 : en:00:44:00.804
00:50:19.349 : en:00:50:19.349
00:55:34.998 : en:00:55:34.998
01:03:57.625 : en:01:03:57.625
01:09:02.847 : en:01:09:02.847
01:11:42.089 : en:01:11:42.089
01:17:08.290 : en:01:17:08.290
01:20:55.183 : en:01:20:55.183
01:26:08.788 : en:01:26:08.788
01:28:58.958 : en:01:28:58.958
01:32:59.532 : en:01:32:59.532
01:38:02.793 : en:01:38:02.793
01:42:31.854 : en:01:42:31.854
01:49:22.722 : en:01:49:22.722
01:53:48.822 : en:01:53:48.822
01:57:59.072 : en:01:57:59.072
x264
x264 [info]: frame I:1127 Avg QP:16.45 size:108432
x264 [info]: frame P:38382 Avg QP:19.20 size: 44411
x264 [info]: frame B:138068 Avg QP:21.04 size: 18069
 

Вложения

  • 40,7 KB Просмотры: 1
    Личеров 0
    Сидеров 0
    Файлов 1
    Объем 7,9 GB

Привет!

Мы группа людей которые решили помочь другим в решении их проблем, а так же пользователям с поиском самых свежих и качественных инфопродуктов. За 4 с небольшим месяца мы создали этот форум на который заходят ежедневно тысячи человек и посещаемость постоянно растёт. Мы создали панель лицензирования для защиты PHP скриптов от воровства и SEO панель для мониторинга наших сайтов и выбора верной стратегии их развития. Мы надеемся что то что мы создали пригодится Вам и возможно Вы поможете нам развиваться и совершенствоваться вместе с Вами.

Статистика форума

Темы
412.278
Сообщения
471.366
Пользователи
91.813
Новый пользователь
Димыч

Приложения форума для iOS и Android


У ркн там нет власти ;)
Приватные разговоры
Помощь Пользователи
    Вы не присоединились ни к одной комнате.