За последнюю неделю опубликовано 48 новых материалов.
Инструкция новичку Путеводитель по форуму Прокси для Telegram Показать подсказки , это бомба!

Скачать Код Да Винчи / The Da Vinci Code (2006) BDRip 720p от FREEISLAND | Extended Cut бесплатно через торрент

  • Поучаствуй (в качестве покупателя) в любых пяти совместных покупках (кроме завершённых и "Моментальных") и получи группу "Новичок" навсегда -> ссылка на раздел
  • Получай до 480 рублей за каждого приглашенного пользователя!
    представляем Вам очередное расширение партнерской программы, подробности описаны тут -> ссылка
  • 90% материалов доступно к скачиванию после простой регистрации!
    Если же ты хочешь скачивать материалы без требования оставлять отзывы то получи группу "Новичок", 10 способов повышения описаны тут -> ссылка
  • К сожалению количество битых ссылок растет и мы уже не можем их оперативно восстанавливать поэтому просим помощи у каждого нашего пользователя.
    С сегодняшнего дня, за каждую восстановленную ссылку мы заплатим Вам.
    Подробнее тут -> ссылка
  • Перенесем твои заслуги с другого ресурса!
    Мы понимаем как сложно прокачивать аккаунты на форумах, вроде раскачал аккаунт, а тут появляется ресурс в 100 раз круче но тоже с системой прокачки и снова качать аккаунт...
    Предлагаем вам перенести Ваши заслуги на другом подобном ресурсе к нам.
    Подробности описаны тут -> ссылка
  • Вы можете получать по 2.5% с каждой покупки и продажи на маркете! Подробности в теме Партнёрская программа
Если Вы не хотите скачивать, Вы всегда можетепосмотретьонлайн, просто нажмите кнопку ниже :

Открыть плеер

Torrent_Bot

Торрент-Бот
Бот форума
4 Окт 2016
93
160
20



Информация о фильме
Название: Код Да Винчи
Оригинальное название: The Da Vinci Code
Год выхода: 2006
Жанр: триллер, детектив
Режиссер: Рон Ховард
В ролях: Том Хэнкс, Одри Тоту, Иэн МакКеллен, Жан Рено, Пол Беттани, Альфред Молина, Юрген Прохнов, Жан-Ив Бертело, Этьен Шико, Жан-Пьер Марьель

О фильме:
Гарвардского профессора Роберта Лэнгдона подозревают в чудовищном преступлении, которого он не совершал. Лэнгдон знакомится с криптографом парижской полиции Софи Невё и вместе с ней пытается раскрыть тайну, которая может подорвать могущество католической церкви.Роберт и Софи должны это сделать до того, как их схватят блюстители закона или остановят противники, готовые на все ради сохранения великого религиозного секрета...




Страна: США
Студия: Columbia Pictures
Продолжительность: 02:54:37
Перевод: Дубляж + (многоголосый закадровый на вставки Extended Cut)

Файл
Кодек: H.264
Качество: BDRip720p
Видео: English, 4608 Кбит/сек, 1280*528 (2,40:1), в 23,976 кадр/сек, AVC ([email protected])
Звук:
Russian, 448 Кбит/сек, 48,0 КГц, 16 бит, 6 канала(ов), AC-3 | Дубляж + многоголосый закадровый
English, 320 Кбит/сек, 48,0 КГц, 16 бит, 6 канала(ов), AC-3 | Оригинал
Субтитры: Russian, Russian (forced), English (VobSub)
Отдельно:
Russian,448 Кбит/сек, 48,0 КГц, 16 бит, 6 канала(ов), AC-3 |Многоголосый закадровый, Blu-ray CEE|
Russian,384 Кбит/сек, 48,0 КГц, 16 бит, 6 канала(ов), AC-3 |Многоголосый закадровый, Киномания|
Russian,448 Кбит/сек, 48,0 КГц, 16 бит, 6 канала(ов), AC-3 |Одноголосый закадровый, В.Королёв|
Russian, 448 Кбит/сек, 48,0 КГц, 16 бит, 6 канала(ов), AC-3 |Одноголосый закадровый, А.Гаврилов|
Russian, 448 Кбит/сек, 48,0 КГц, 16 бит, 6 канала(ов), AC-3 |Двуголосый закадровый, П.Гланц и И.Королёва|
Общее
Уникальный идентификатор : 177863848067160669888292272922918480761 (0x85CF54C313E09C409AD3D71F87056B79)
Полное имя : E:торрентThe Da Vinci Code(2006)The Da Vinci Code(2004)720p.mkv
Формат : Matroska
Версия формата : Version 2
Размер файла : 6,56 Гбайт
Продолжительность : 2 ч. 54 м.
Общий поток : 5382 Кбит/сек
Дата кодирования : UTC 2011-11-06 09:14:51
Программа кодирования : mkvmerge v5.0.1 ('Es ist Sommer') built on Oct 9 2011 11:55:43
Библиотека кодирования : libebml v1.2.2 + libmatroska v1.3.0

Видео
Идентификатор : 1
Формат : AVC
Формат/Информация : Advanced Video Codec
Профиль формата : [email protected]
Параметр CABAC формата : Да
Параметр ReFrames формата : 8 кадров
Идентификатор кодека : V_MPEG4/ISO/AVC
Продолжительность : 2 ч. 54 м.
Битрейт : 4608 Кбит/сек
Ширина : 1280 пикселей
Высота : 528 пикселей
Соотношение сторон : 2,40:1
Частота кадров : 23,976 кадра/сек
Цветовое пространство : YUV
Субдискретизация насыщенности : 4:2:0
Битовая глубина : 8 бит
Тип развёртки : Прогрессивная
Бит/(Пиксели*Кадры) : 0.284
Размер потока : 5,50 Гбайт (84%)
Библиотека кодирования : x264 core 119 r2106 07efeb4
Настройки программы : cabac=1 / ref=8 / deblock=1:-3:-3 / analyse=0x3:0x113 / me=umh / subme=9 / psy=1 / psy_rd=1.00:0.15 / mixed_ref=1 / me_range=24 / chroma_me=1 / trellis=2 / 8x8dct=1 / cqm=0 / deadzone=21,11 / fast_pskip=0 / chroma_qp_offset=-3 / threads=6 / sliced_threads=0 / nr=0 / decimate=0 / interlaced=0 / bluray_compat=0 / constrained_intra=0 / bframes=6 / b_pyramid=2 / b_adapt=2 / b_bias=0 / direct=1 / weightb=1 / open_gop=0 / weightp=2 / keyint=250 / keyint_min=23 / scenecut=40 / intra_refresh=0 / rc_lookahead=60 / rc=2pass / mbtree=1 / bitrate=4608 / ratetol=1.0 / qcomp=0.70 / qpmin=10 / qpmax=51 / qpstep=4 / cplxblur=20.0 / qblur=0.5 / ip_ratio=1.40 / aq=1:0.80
Язык : English

Аудио #1
Идентификатор : 2
Формат : AC-3
Формат/Информация : Audio Coding 3
Расширение режима : CM (complete main)
Идентификатор кодека : A_AC3
Продолжительность : 2 ч. 54 м.
Вид битрейта : Постоянный
Битрейт : 448 Кбит/сек
Каналы : 6 каналов
Расположение каналов : Front: L C R, Side: L R, LFE
Частота : 48,0 КГц
Битовая глубина : 16 бит
Метод сжатия : С потерями
Размер потока : 560 Мбайт (8%)
Язык : Russian

Аудио #2
Идентификатор : 3
Формат : AC-3
Формат/Информация : Audio Coding 3
Расширение режима : CM (complete main)
Идентификатор кодека : A_AC3
Продолжительность : 2 ч. 54 м.
Вид битрейта : Постоянный
Битрейт : 320 Кбит/сек
Каналы : 6 каналов
Расположение каналов : Front: L C R, Side: L R, LFE
Частота : 48,0 КГц
Битовая глубина : 16 бит
Метод сжатия : С потерями
Размер потока : 400 Мбайт (6%)
Язык : English

Текст #1
Идентификатор : 4
Формат : VobSub
Режим смешивания : zlib
Идентификатор кодека : S_VOBSUB
Идентификатор кодека/Информация : The same subtitle format used on DVDs
Язык : Russian

Текст #2
Идентификатор : 5
Формат : VobSub
Режим смешивания : zlib
Идентификатор кодека : S_VOBSUB
Идентификатор кодека/Информация : The same subtitle format used on DVDs
Язык : Russian

Текст #3
Идентификатор : 6
Формат : VobSub
Режим смешивания : zlib
Идентификатор кодека : S_VOBSUB
Идентификатор кодека/Информация : The same subtitle format used on DVDs
Язык : English

Меню
00:00:00.000 : en:Chapter 01
00:10:09.232 : en:Chapter 02
00:17:27.463 : en:Chapter 03
00:31:01.192 : en:Chapter 04
00:38:14.417 : en:Chapter 05
00:52:07.833 : en:Chapter 06
01:06:43.040 : en:Chapter 07
01:18:50.392 : en:Chapter 08
01:27:39.003 : en:Chapter 09
01:34:35.419 : en:Chapter 10
01:49:19.302 : en:Chapter 11
02:01:19.355 : en:Chapter 12
02:08:03.842 : en:Chapter 13
02:18:17.664 : en:Chapter 14
02:29:55.861 : en:Chapter 15
02:37:31.150 : en:Chapter 16
Скриншоты

Релиз от:
 

Вложения

  • 47,5 KB Просмотры: 0
    Личеров 0
    Сидеров 0
    Файлов 6
    Объем 9,2 GB

Привет!

Мы группа людей которые решили помочь другим в решении их проблем, а так же пользователям с поиском самых свежих и качественных инфопродуктов. За 4 с небольшим месяца мы создали этот форум на который заходят ежедневно тысячи человек и посещаемость постоянно растёт. Мы создали панель лицензирования для защиты PHP скриптов от воровства и SEO панель для мониторинга наших сайтов и выбора верной стратегии их развития. Мы надеемся что то что мы создали пригодится Вам и возможно Вы поможете нам развиваться и совершенствоваться вместе с Вами.

Статистика форума

Темы
406.640
Сообщения
465.124
Пользователи
84.582
Новый пользователь
mladshiy

Приложения форума для iOS и Android


У ркн там нет власти ;)
Приватные разговоры
Помощь Пользователи
    Вы не присоединились ни к одной комнате.