За последнюю неделю опубликовано 49 новых материалов.
Инструкция новичку Путеводитель по форуму Прокси для Telegram Показать подсказки , это бомба!

Скачать Кинолюбитель / Amator (1979) BDRip 720p от msltel | P2 бесплатно через торрент

  • Поучаствуй (в качестве покупателя) в любых пяти совместных покупках (кроме завершённых и "Моментальных") и получи группу "Новичок" навсегда -> ссылка на раздел
  • Получай до 480 рублей за каждого приглашенного пользователя!
    представляем Вам очередное расширение партнерской программы, подробности описаны тут -> ссылка
  • 90% материалов доступно к скачиванию после простой регистрации!
    Если же ты хочешь скачивать материалы без требования оставлять отзывы то получи группу "Новичок", 10 способов повышения описаны тут -> ссылка
  • К сожалению количество битых ссылок растет и мы уже не можем их оперативно восстанавливать поэтому просим помощи у каждого нашего пользователя.
    С сегодняшнего дня, за каждую восстановленную ссылку мы заплатим Вам.
    Подробнее тут -> ссылка
  • Перенесем твои заслуги с другого ресурса!
    Мы понимаем как сложно прокачивать аккаунты на форумах, вроде раскачал аккаунт, а тут появляется ресурс в 100 раз круче но тоже с системой прокачки и снова качать аккаунт...
    Предлагаем вам перенести Ваши заслуги на другом подобном ресурсе к нам.
    Подробности описаны тут -> ссылка
  • Вы можете получать по 2.5% с каждой покупки и продажи на маркете! Подробности в теме Партнёрская программа
Если Вы не хотите скачивать, Вы всегда можетепосмотретьонлайн, просто нажмите кнопку ниже :

Открыть плеер

Torrent_Bot

Торрент-Бот
Бот форума
4 Окт 2016
93
160
20



Название: Кинолюбитель
Оригинальное название: Amator
Год выпуска: 1979
Страна: Польша
Жанр: драма
Продолжительность: 01:53:25
Перевод: профессиональный двухголосый
Режиссер: Кшиштоф Кесьлёвский
В ролях: Ежи Штур, Малгожата Зомбковска, Ева Покас, Стефан Жыжевски, Ежи Новак, Тадеуш Брадецки, Кшиштоф Занусси

О фильме: После рождения ребёнка Филип покупает 8-миллиметровую камеру и первые любительские опыты посвящает дочери. В маленьком фабричном городке киноманский порыв дилетанта-оператора не остается незамеченным, и вот уже Филип становится личным помощником местного партийного босса. С повышением по службе растёт и слава любителя, только взгляд его на реальность через объектив становится всё более неприятным и беспощадным и все менее устраивающим власть предержащих...



Качество: BDRip 720p
Формат: MKV
Видео: MPEG-4 AVC, 4497 Кбит/с, 1014x720, 23.976 кадр/с
Аудио 1: русский, AC3, 192 kbps, 1 ch, 48 kHz [закадровый двухголосый, Другое кино]
Аудио 2: польский, AC3, 192 kbps, 1 ch, 48 kHz [оригинал]
Субтитры 1: русские (divxclub)
Субтитры 2: английские (Arrow Films)
Главы/чаптеры

MediaInfo
Общее
Уникальный идентификатор : 232554657282544922418770851709336199345 (0xAEF465D750FAED5FB02745E6B304A0B1)
Полное имя : D:VideoКинолюбитель.1979.BDRip 720p msltel.mkv
Формат : Matroska
Версия формата : Version 4
Размер файла : 3,87 Гбайт
Продолжительность : 1 ч. 53 м.
Общий поток : 4 883 Кбит/сек
Название фильма : Rip msltel
Дата кодирования : UTC 2020-07-09 04:23:25
Программа кодирования : mkvmerge v8.2.0 ('World of Adventure') 64bit
Библиотека кодирования : libebml v1.3.1 + libmatroska v1.4.2

Видео
Идентификатор : 1
Формат : AVC
Формат/Информация : Advanced Video Codec
Профиль формата : [email protected]
Настройки формата : CABAC / 4 Ref Frames
Параметр CABAC формата : Да
Параметр RefFrames формата : 4 кадра
Идентификатор кодека : V_MPEG4/ISO/AVC
Продолжительность : 1 ч. 53 м.
Битрейт : 4 497 Кбит/сек
Ширина : 1 014 пикселей
Высота : 720 пикселей
Соотношение сторон : 1,408
Режим частоты кадров : Постоянный
Частота кадров : 23,976 (24000/1001) кадра/сек
Цветовое пространство : YUV
Субдискретизация насыщенности : 4:2:0
Битовая глубина : 8 бит
Тип развёртки : Прогрессивная
Бит/(Пиксели*Кадры) : 0.257
Размер потока : 3,56 Гбайт (92%)
Библиотека кодирования : x264 core 159 r2991 1771b55
Настройки программы : cabac=1 / ref=4 / deblock=1:-2:-2 / analyse=0x3:0x113 / me=umh / subme=11 / psy=1 / psy_rd=1.00:0.15 / mixed_ref=1 / me_range=32 / chroma_me=1 / trellis=2 / 8x8dct=1 / cqm=0 / deadzone=21,11 / fast_pskip=0 / chroma_qp_offset=-3 / threads=6 / lookahead_threads=1 / sliced_threads=0 / nr=0 / decimate=1 / interlaced=0 / bluray_compat=0 / constrained_intra=0 / bframes=6 / b_pyramid=2 / b_adapt=2 / b_bias=0 / direct=1 / weightb=1 / open_gop=0 / weightp=2 / keyint=230 / keyint_min=23 / scenecut=40 / intra_refresh=0 / rc_lookahead=40 / rc=crf / mbtree=1 / crf=20.5 / qcomp=0.60 / qpmin=0 / qpmax=69 / qpstep=4 / vbv_maxrate=50000 / vbv_bufsize=62500 / crf_max=0.0 / nal_hrd=none / filler=0 / ip_ratio=1.40 / aq=1:1.00
Язык : Polish
Default : Да
Forced : Нет

Аудио #1
Идентификатор : 2
Формат : AC-3
Формат/Информация : Audio Coding 3
Коммерческое название : Dolby Digital
Идентификатор кодека : A_AC3
Продолжительность : 1 ч. 53 м.
Вид битрейта : Постоянный
Битрейт : 192 Кбит/сек
Каналы : 1 канал
Channel layout : C
Частота : 48,0 КГц
Частота кадров : 31,250 кадров/сек (1536 SPF)
Метод сжатия : С потерями
Размер потока : 156 Мбайт (4%)
Заголовок : DVO Другое кино
Язык : Russian
Service kind : Complete Main
Default : Да
Forced : Нет

Аудио #2
Идентификатор : 3
Формат : AC-3
Формат/Информация : Audio Coding 3
Коммерческое название : Dolby Digital
Идентификатор кодека : A_AC3
Продолжительность : 1 ч. 53 м.
Вид битрейта : Постоянный
Битрейт : 192 Кбит/сек
Каналы : 1 канал
Channel layout : C
Частота : 48,0 КГц
Частота кадров : 31,250 кадров/сек (1536 SPF)
Метод сжатия : С потерями
Размер потока : 156 Мбайт (4%)
Заголовок : оригинал
Язык : Polish
Service kind : Complete Main
Default : Нет
Forced : Нет

Текст #1
Идентификатор : 4
Формат : UTF-8
Идентификатор кодека : S_TEXT/UTF8
Идентификатор кодека/Информация : UTF-8 Plain Text
Продолжительность : 1 ч. 50 м.
Битрейт : 85 бит/сек
Count of elements : 1327
Размер потока : 69,0 Кбайт (0%)
Заголовок : русские divxclub
Язык : Russian
Default : Нет
Forced : Нет

Текст #2
Идентификатор : 5
Формат : UTF-8
Идентификатор кодека : S_TEXT/UTF8
Идентификатор кодека/Информация : UTF-8 Plain Text
Продолжительность : 1 ч. 50 м.
Битрейт : 44 бит/сек
Count of elements : 1169
Размер потока : 36,0 Кбайт (0%)
Заголовок : английские Arrow Films
Язык : English
Default : Нет
Forced : Нет

Меню
00:00:00.000 : en:Chapter 01
00:09:06.087 : en:Chapter 02
00:17:41.435 : en:Chapter 03
00:27:01.578 : en:Chapter 04
00:37:12.814 : en:Chapter 05
00:47:17.835 : en:Chapter 06
00:57:25.025 : en:Chapter 07
01:06:01.082 : en:Chapter 08
01:16:42.389 : en:Chapter 09
01:26:19.841 : en:Chapter 10
01:33:00.158 : en:Chapter 11
01:43:07.181 : en:Chapter 12
 

Вложения

  • 20,2 KB Просмотры: 0
    Личеров 0
    Сидеров 0
    Файлов 1
    Объем 3,9 GB

Привет!

Мы группа людей которые решили помочь другим в решении их проблем, а так же пользователям с поиском самых свежих и качественных инфопродуктов. За 4 с небольшим месяца мы создали этот форум на который заходят ежедневно тысячи человек и посещаемость постоянно растёт. Мы создали панель лицензирования для защиты PHP скриптов от воровства и SEO панель для мониторинга наших сайтов и выбора верной стратегии их развития. Мы надеемся что то что мы создали пригодится Вам и возможно Вы поможете нам развиваться и совершенствоваться вместе с Вами.

Статистика форума

Темы
406.640
Сообщения
465.116
Пользователи
84.573
Новый пользователь
sobolsm

Приложения форума для iOS и Android


У ркн там нет власти ;)
Приватные разговоры
Помощь Пользователи
    Вы не присоединились ни к одной комнате.