За последнюю неделю опубликовано 102 новых материалов.
Инструкция новичку Путеводитель по форуму Прокси для Telegram Показать подсказки , это бомба!

Скачать Киборг-полицейский: Трилогия / Cyborg Cop: Trilogy (1993-1995) DVDRip-AVC от DrVampir | A бесплатно через торрент

  • Поучаствуй (в качестве покупателя) в любых пяти совместных покупках (кроме завершённых и "Моментальных") и получи группу "Новичок" навсегда -> ссылка на раздел
  • Получай до 480 рублей за каждого приглашенного пользователя!
    представляем Вам очередное расширение партнерской программы, подробности описаны тут -> ссылка
  • 90% материалов доступно к скачиванию после простой регистрации!
    Если же ты хочешь скачивать материалы без требования оставлять отзывы то получи группу "Новичок", 10 способов повышения описаны тут -> ссылка
  • К сожалению количество битых ссылок растет и мы уже не можем их оперативно восстанавливать поэтому просим помощи у каждого нашего пользователя.
    С сегодняшнего дня, за каждую восстановленную ссылку мы заплатим Вам.
    Подробнее тут -> ссылка
  • Перенесем твои заслуги с другого ресурса!
    Мы понимаем как сложно прокачивать аккаунты на форумах, вроде раскачал аккаунт, а тут появляется ресурс в 100 раз круче но тоже с системой прокачки и снова качать аккаунт...
    Предлагаем вам перенести Ваши заслуги на другом подобном ресурсе к нам.
    Подробности описаны тут -> ссылка
  • Вы можете получать по 2.5% с каждой покупки и продажи на маркете! Подробности в теме Партнёрская программа
Если Вы не хотите скачивать, Вы всегда можетепосмотретьонлайн, просто нажмите кнопку ниже :

Открыть плеер

Torrent_Bot

Торрент-Бот
Бот форума
4 Окт 2016
102
152
20
Киборг-полицейский (1993)
Киборг-полицейский (1993)
Информация о фильме
Название: Киборг-полицейский
Оригинальное название: Cyborg Cop
Год выхода: 1993
Жанр: фантастика, боевик
Режиссер: Сэм Ферстенберг
В ролях: Дэвид Брэдли , Тодд Дженсен, Элонна Шоу, Руфус Суорт, Джон Риз-Дэйвис и др.

О фильме:
Двоих полицейских, братьев, увольняют с работы за то, что они убили маньяка, взявшего в заложницы девушку. Маньяк оказался сыном крупного издателя. После этого им предложили опасное задание, а один из братьев, Джек, отказался. Задание оказалось ловушкой — отряд был уничтожен, а злодей-ученый Кессель превратил брата в киборга-убийцу в своей лаборатории. Потом эти существа продавались всем, у кого на это были деньги. Узнав, что его брат пропал, Джек отправляется его выручать. И надо сказать, что этот парень умел за себя постоять.



Страна: США
Продолжительность: 01:32:17
Перевод: Авторский

Файл
Кодек: h.264
Качество: DVDRip-AVC
Видео: MPEG-4, 704x540, 25.000 fps ~1869 kbps
Звук:
1) 48 KHz, AC3, 2 ch ~192 Kbps - AVO [Живов]
2) 48 KHz, AC3, 2 ch ~192 Kbps - Original

Media Info:
Скрытый текст
General
Unique ID : 117704595802758057715502298205712957542 (0x588D149FE5EFF0BE8C120A0DE6C24066)
Complete name : K:VIDEOКиборг-полицейский - Трилогия [1993-1995]Киборг-полицейский (1993).mkv
Format : Matroska
Format version : Version 4 / Version 2
File size : 1.45 GiB
Duration : 1 h 32 min
Overall bit rate : 2 255 kb/s
Movie name : Cyborg Cop (1993) DVDRip-AVC от DrVampir
Encoded date : UTC 2018-03-04 14:57:56 / UTC 2018-02-28T02:13:43Z
Writing application : mkvmerge v21.0.0 ('Tardigrades Will Inherit The Earth') 64-bit
Writing library : libebml v1.3.5 + libmatroska v1.4.8 / Lavf57.7.2
Cover : Yes
Attachments : Cover.jpg

Video
ID : 1
Format : AVC
Format/Info : Advanced Video Codec
Format profile : High@L4.1
Format settings : CABAC / 12 Ref Frames
Format settings, CABAC : Yes
Format settings, ReFrames : 12 frames
Codec ID : V_MPEG4/ISO/AVC
Duration : 1 h 32 min
Bit rate : 1 869 kb/s
Width : 704 pixels
Height : 540 pixels
Display aspect ratio : 4:3
Frame rate mode : Constant
Frame rate : 25.000 FPS
Color space : YUV
Chroma subsampling : 4:2:0
Bit depth : 8 bits
Scan type : Progressive
Bits/(Pixel*Frame) : 0.197
Stream size : 1.18 GiB (81%)
Title : MPEG-4, 704x540, 25.000 fps ~1869 kbps
Writing library : x264 core 148 r2708 86b7198
Encoding settings : cabac=1 / ref=12 / deblock=1:-3:-2 / analyse=0x3:0x133 / me=umh / subme=11 / psy=1 / psy_rd=1.00:0.15 / mixed_ref=1 / me_range=32 / chroma_me=1 / trellis=2 / 8x8dct=1 / cqm=0 / deadzone=21,11 / fast_pskip=0 / chroma_qp_offset=-3 / threads=6 / lookahead_threads=1 / sliced_threads=0 / nr=0 / decimate=1 / interlaced=0 / bluray_compat=0 / constrained_intra=0 / bframes=14 / b_pyramid=2 / b_adapt=2 / b_bias=0 / direct=3 / weightb=1 / open_gop=0 / weightp=2 / keyint=250 / keyint_min=25 / scenecut=40 / intra_refresh=0 / rc_lookahead=80 / rc=2pass / mbtree=0 / bitrate=1869 / ratetol=1.0 / qcomp=0.60 / qpmin=0 / qpmax=69 / qpstep=4 / cplxblur=20.0 / qblur=0.5 / vbv_maxrate=62500 / vbv_bufsize=78125 / nal_hrd=none / filler=0 / ip_ratio=1.40 / pb_ratio=1.30 / aq=1:1.00
Language : English
Default : Yes
Forced : No
Color range : Limited
Color primaries : BT.601 PAL
Transfer characteristics : BT.709
Matrix coefficients : BT.601
Statistics Tags Issue : mkvmerge v21.0.0 ('Tardigrades Will Inherit The Earth') 64-bit 2018-03-04 14:57:56 / mkvmerge v21.0.0 ('Tardigrades Will Inherit The Earth') 64-bit 2018-03-04 14:57:56 / UTC 2018-02-28T02:13:43Z
FromStats_BitRate : 1869221
FromStats_Duration : 01:32:17.600000000
FromStats_FrameCount : 138440
FromStats_StreamSize : 1293875127

Audio #1
ID : 2
Format : AC-3
Format/Info : Audio Coding 3
Codec ID : A_AC3
Duration : 1 h 32 min
Bit rate mode : Constant
Bit rate : 192 kb/s
Channel(s) : 2 channels
Channel positions : Front: L R
Sampling rate : 48.0 kHz
Frame rate : 31.250 FPS (1536 SPF)
Bit depth : 16 bits
Compression mode : Lossy
Stream size : 127 MiB (9%)
Title : 48 KHz, AC3, 2 ch ~192 Kbps - AVO [Живов]
Language : Russian
Service kind : Complete Main
Default : Yes
Forced : No
Statistics Tags Issue : mkvmerge v21.0.0 ('Tardigrades Will Inherit The Earth') 64-bit 2018-03-04 14:57:56 / mkvmerge v21.0.0 ('Tardigrades Will Inherit The Earth') 64-bit 2018-03-04 14:57:56 / UTC 2018-02-28T02:13:43Z
FromStats_BitRate : 192000
FromStats_Duration : 01:32:16.992000000
FromStats_FrameCount : 173031
FromStats_StreamSize : 132887808

Audio #2
ID : 3
Format : AC-3
Format/Info : Audio Coding 3
Codec ID : A_AC3
Duration : 1 h 32 min
Bit rate mode : Constant
Bit rate : 192 kb/s
Channel(s) : 2 channels
Channel positions : Front: L R
Sampling rate : 48.0 kHz
Frame rate : 31.250 FPS (1536 SPF)
Bit depth : 16 bits
Compression mode : Lossy
Stream size : 127 MiB (9%)
Title : 48 KHz, AC3, 2 ch ~192 Kbps - Original
Language : English
Service kind : Complete Main
Default : No
Forced : No
Statistics Tags Issue : mkvmerge v21.0.0 ('Tardigrades Will Inherit The Earth') 64-bit 2018-03-04 14:57:56 / mkvmerge v21.0.0 ('Tardigrades Will Inherit The Earth') 64-bit 2018-03-04 14:57:56 / UTC 2018-02-28T02:13:43Z
FromStats_BitRate : 192000
FromStats_Duration : 01:32:16.992000000
FromStats_FrameCount : 173031
FromStats_StreamSize : 132887808

Menu
00:00:00.120 : :Chapter 1
00:07:58.400 : :Chapter 2
00:15:38.000 : :Chapter 3
00:23:18.320 : :Chapter 4
00:30:58.160 : :Chapter 5
00:38:38.000 : :Chapter 6
00:46:18.320 : :Chapter 7
00:53:57.920 : :Chapter 8
01:01:38.000 : :Chapter 9
01:09:17.840 : :Chapter 10
01:16:57.920 : :Chapter 11
01:24:37.760 : :Chapter 12
Скриншоты

Киборг-полицейский 2 (1994)
Киборг-полицейский 2 (1994)
Информация о фильме
Название: Киборг-полицейский 2
Оригинальное название: Cyborg Cop 2
Год выхода: 1994
Жанр: фантастика, боевик
Режиссер: Сэм Ферстенберг
В ролях: Дэвид Брэдли, Морган Хантер, Джилл Пирс, Виктор Меллени, Дуглас Бристоу, Дэйл Каттс и др.

О фильме:
Человеческая душа или механический разум — что сильнее в этом безжалостном мире? И в самом худшем кошмаре полицейский Джек Райен не хотел бы представить себе, что ему вновь придется сойтись в смертельной схватке с целым отрядом киборгов-убийц!



Страна: США
Продолжительность: 01:33:24
Перевод: Авторский

Файл
Кодек: h.264
Качество: DVDRip-AVC
Видео: MPEG-4, 704x536, 25.000 fps ~1650 kbps
Звук:
1) 48 KHz, AC3, 2 ch ~192 Kbps - AVO [Живов]
2) 48 KHz, AC3, 2 ch ~192 Kbps - AVO [Гаврилов]
3) 48 KHz, AC3, 2 ch ~192 Kbps - Original

Media Info:
Скрытый текст
General
Unique ID : 147452005612296345734079136858411519325 (0x6EEE3929FBC7C40C07D96B18AC9A4D5D)
Complete name : K:VIDEOКиборг-полицейский - Трилогия [1993-1995]Киборг-полицейский 2 (1994).mkv
Format : Matroska
Format version : Version 4 / Version 2
File size : 1.45 GiB
Duration : 1 h 33 min
Overall bit rate : 2 228 kb/s
Movie name : Cyborg Cop 2 (1994) DVDRip-AVC от DrVampir
Encoded date : UTC 2018-03-04 15:14:09 / UTC 2018-03-02T03:42:35Z
Writing application : mkvmerge v21.0.0 ('Tardigrades Will Inherit The Earth') 64-bit
Writing library : libebml v1.3.5 + libmatroska v1.4.8 / Lavf57.7.2
Cover : Yes
Attachments : Cover.jpg

Video
ID : 1
Format : AVC
Format/Info : Advanced Video Codec
Format profile : High@L4.1
Format settings : CABAC / 12 Ref Frames
Format settings, CABAC : Yes
Format settings, ReFrames : 12 frames
Codec ID : V_MPEG4/ISO/AVC
Duration : 1 h 33 min
Bit rate : 1 650 kb/s
Width : 704 pixels
Height : 536 pixels
Display aspect ratio : 4:3
Frame rate mode : Constant
Frame rate : 25.000 FPS
Color space : YUV
Chroma subsampling : 4:2:0
Bit depth : 8 bits
Scan type : Progressive
Bits/(Pixel*Frame) : 0.175
Stream size : 1.05 GiB (72%)
Title : MPEG-4, 704x536, 25.000 fps ~1650 kbps
Writing library : x264 core 148 r2708 86b7198
Encoding settings : cabac=1 / ref=12 / deblock=1:-2:-2 / analyse=0x3:0x133 / me=umh / subme=11 / psy=1 / psy_rd=1.00:0.15 / mixed_ref=1 / me_range=32 / chroma_me=1 / trellis=2 / 8x8dct=1 / cqm=0 / deadzone=21,11 / fast_pskip=0 / chroma_qp_offset=-3 / threads=6 / lookahead_threads=1 / sliced_threads=0 / nr=0 / decimate=1 / interlaced=0 / bluray_compat=0 / constrained_intra=0 / bframes=16 / b_pyramid=2 / b_adapt=2 / b_bias=0 / direct=3 / weightb=1 / open_gop=0 / weightp=2 / keyint=250 / keyint_min=25 / scenecut=40 / intra_refresh=0 / rc_lookahead=80 / rc=2pass / mbtree=0 / bitrate=1650 / ratetol=1.0 / qcomp=0.60 / qpmin=0 / qpmax=69 / qpstep=4 / cplxblur=20.0 / qblur=0.5 / vbv_maxrate=62500 / vbv_bufsize=78125 / nal_hrd=none / filler=0 / ip_ratio=1.40 / pb_ratio=1.30 / aq=1:1.00
Language : English
Default : Yes
Forced : No
Color range : Limited
Color primaries : BT.601 PAL
Transfer characteristics : BT.709
Matrix coefficients : BT.601
Statistics Tags Issue : mkvmerge v21.0.0 ('Tardigrades Will Inherit The Earth') 64-bit 2018-03-04 15:14:09 / mkvmerge v21.0.0 ('Tardigrades Will Inherit The Earth') 64-bit 2018-03-04 15:14:09 / UTC 2018-03-02T03:42:35Z
FromStats_BitRate : 1650083
FromStats_Duration : 01:33:24.240000000
FromStats_FrameCount : 140106
FromStats_StreamSize : 1155932856

Audio #1
ID : 2
Format : AC-3
Format/Info : Audio Coding 3
Codec ID : A_AC3
Duration : 1 h 33 min
Bit rate mode : Constant
Bit rate : 192 kb/s
Channel(s) : 2 channels
Channel positions : Front: L R
Sampling rate : 48.0 kHz
Frame rate : 31.250 FPS (1536 SPF)
Bit depth : 16 bits
Compression mode : Lossy
Stream size : 128 MiB (9%)
Title : 48 KHz, AC3, 2 ch ~192 Kbps - AVO [Живов]
Language : Russian
Service kind : Complete Main
Default : Yes
Forced : No
Statistics Tags Issue : mkvmerge v21.0.0 ('Tardigrades Will Inherit The Earth') 64-bit 2018-03-04 15:14:09 / mkvmerge v21.0.0 ('Tardigrades Will Inherit The Earth') 64-bit 2018-03-04 15:14:09 / UTC 2018-03-02T03:42:35Z
FromStats_BitRate : 192000
FromStats_Duration : 01:33:23.616000000
FromStats_FrameCount : 175113
FromStats_StreamSize : 134486784

Audio #2
ID : 3
Format : AC-3
Format/Info : Audio Coding 3
Codec ID : A_AC3
Duration : 1 h 33 min
Bit rate mode : Constant
Bit rate : 192 kb/s
Channel(s) : 2 channels
Channel positions : Front: L R
Sampling rate : 48.0 kHz
Frame rate : 31.250 FPS (1536 SPF)
Bit depth : 16 bits
Compression mode : Lossy
Delay relative to video : 16 ms
Stream size : 128 MiB (9%)
Title : 48 KHz, AC3, 2 ch ~192 Kbps - AVO [Гаврилов]
Language : Russian
Service kind : Complete Main
Default : No
Forced : No
Statistics Tags Issue : mkvmerge v21.0.0 ('Tardigrades Will Inherit The Earth') 64-bit 2018-03-04 15:14:09 / mkvmerge v21.0.0 ('Tardigrades Will Inherit The Earth') 64-bit 2018-03-04 15:14:09 / UTC 2018-03-02T03:42:35Z
FromStats_BitRate : 192000
FromStats_Duration : 01:33:23.552000000
FromStats_FrameCount : 175111
FromStats_StreamSize : 134485248

Audio #3
ID : 4
Format : AC-3
Format/Info : Audio Coding 3
Codec ID : A_AC3
Duration : 1 h 33 min
Bit rate mode : Constant
Bit rate : 192 kb/s
Channel(s) : 2 channels
Channel positions : Front: L R
Sampling rate : 48.0 kHz
Frame rate : 31.250 FPS (1536 SPF)
Bit depth : 16 bits
Compression mode : Lossy
Stream size : 128 MiB (9%)
Title : 48 KHz, AC3, 2 ch ~192 Kbps - Original
Language : English
Service kind : Complete Main
Default : No
Forced : No
Statistics Tags Issue : mkvmerge v21.0.0 ('Tardigrades Will Inherit The Earth') 64-bit 2018-03-04 15:14:09 / mkvmerge v21.0.0 ('Tardigrades Will Inherit The Earth') 64-bit 2018-03-04 15:14:09 / UTC 2018-03-02T03:42:35Z
FromStats_BitRate : 192000
FromStats_Duration : 01:33:23.616000000
FromStats_FrameCount : 175113
FromStats_StreamSize : 134486784

Menu
00:00:00.120 : :Chapter 1
00:08:02.240 : :Chapter 2
00:15:47.840 : :Chapter 3
00:23:33.440 : :Chapter 4
00:31:19.040 : :Chapter 5
00:39:04.640 : :Chapter 6
00:46:50.480 : :Chapter 7
00:54:35.600 : :Chapter 8
01:02:21.200 : :Chapter 9
01:10:07.040 : :Chapter 10
01:17:52.640 : :Chapter 11
01:25:38.240 : :Chapter 12
Скриншоты

Киборг-полицейский 3
Киборг-полицейский 3
Информация о фильме
Название: Киборг-полицейский 3
Оригинальное название: Cyborg Cop 3
Год выхода: 1995
Жанр: фантастика, боевик
Режиссер: Йосси Уайн
В ролях: Фрэнк Загарино, Брайан Дженесс, Дженнифер Миллер, Иэн Робертс, Джастин Иллюжн, Майкл Браннер и др.

О фильме:
Компания Дельтатех изготовляет киборгов. Об этом узнаёт тележурналистка Эвелин Рид — она хочет подготовить телерепортаж и разоблачить злодеев. Для того чтобы помешать журналистке и избежать международного скандала на предприятие отправляются два спецагента Макс и Святой, помощники федерального маршала.

Агенты слишком увлекаются преследованием своей жертвы, и на них обрушивается армия андроидов. Теперь Макс и Святой должны попытаться остановить эксперименты безумного ученого, который планирует сделать из своих студентов киборгов-убийц.



Страна: США
Продолжительность: 01:30:12
Перевод: Авторский

Файл
Кодек: h.264
Качество: DVDRip-AVC
Видео: MPEG-4, 704x540, 25.000 fps ~1921 kbps
Звук:
1) 48 KHz, AC3, 2 ch ~192 Kbps - AVO [Гаврилов]
2) 48 KHz, AC3, 2 ch ~192 Kbps - Original

Media Info:
Скрытый текст
General
Unique ID : 308018127514018287907790776702686401911 (0xE7BA222E52B23C1F00FC36B832F31577)
Complete name : K:VIDEOКиборг-полицейский - Трилогия [1993-1995]Киборг-полицейский 3 (1995).mkv
Format : Matroska
Format version : Version 4 / Version 2
File size : 1.45 GiB
Duration : 1 h 30 min
Overall bit rate : 2 307 kb/s
Movie name : Cyborg Cop 3 (1995) DVDRip-AVC от DrVampir
Encoded date : UTC 2018-03-04 15:24:25 / UTC 2018-03-04T01:52:59Z
Writing application : mkvmerge v21.0.0 ('Tardigrades Will Inherit The Earth') 64-bit
Writing library : libebml v1.3.5 + libmatroska v1.4.8 / Lavf57.7.2
Cover : Yes
Attachments : Cover.jpg

Video
ID : 1
Format : AVC
Format/Info : Advanced Video Codec
Format profile : High@L4.1
Format settings : CABAC / 12 Ref Frames
Format settings, CABAC : Yes
Format settings, ReFrames : 12 frames
Codec ID : V_MPEG4/ISO/AVC
Duration : 1 h 30 min
Bit rate : 1 921 kb/s
Width : 704 pixels
Height : 540 pixels
Display aspect ratio : 4:3
Frame rate mode : Constant
Frame rate : 25.000 FPS
Color space : YUV
Chroma subsampling : 4:2:0
Bit depth : 8 bits
Scan type : Progressive
Bits/(Pixel*Frame) : 0.202
Stream size : 1.18 GiB (81%)
Title : MPEG-4, 704x540, 25.000 fps ~1921 kbps
Writing library : x264 core 148 r2708 86b7198
Encoding settings : cabac=1 / ref=12 / deblock=1:-3:-2 / analyse=0x3:0x133 / me=umh / subme=11 / psy=1 / psy_rd=1.00:0.15 / mixed_ref=1 / me_range=32 / chroma_me=1 / trellis=2 / 8x8dct=1 / cqm=0 / deadzone=21,11 / fast_pskip=0 / chroma_qp_offset=-3 / threads=6 / lookahead_threads=1 / sliced_threads=0 / nr=0 / decimate=1 / interlaced=0 / bluray_compat=0 / constrained_intra=0 / bframes=13 / b_pyramid=2 / b_adapt=2 / b_bias=0 / direct=3 / weightb=1 / open_gop=0 / weightp=2 / keyint=250 / keyint_min=25 / scenecut=40 / intra_refresh=0 / rc_lookahead=80 / rc=2pass / mbtree=0 / bitrate=1921 / ratetol=1.0 / qcomp=0.60 / qpmin=0 / qpmax=69 / qpstep=4 / cplxblur=20.0 / qblur=0.5 / vbv_maxrate=62500 / vbv_bufsize=78125 / nal_hrd=none / filler=0 / ip_ratio=1.40 / pb_ratio=1.30 / aq=1:1.00
Language : English
Default : Yes
Forced : No
Color range : Limited
Color primaries : BT.601 PAL
Transfer characteristics : BT.709
Matrix coefficients : BT.601
Statistics Tags Issue : mkvmerge v21.0.0 ('Tardigrades Will Inherit The Earth') 64-bit 2018-03-04 15:24:25 / mkvmerge v21.0.0 ('Tardigrades Will Inherit The Earth') 64-bit 2018-03-04 15:24:25 / UTC 2018-03-04T01:52:59Z
FromStats_BitRate : 1921092
FromStats_Duration : 01:30:12.080000000
FromStats_FrameCount : 135302
FromStats_StreamSize : 1299638564

Audio #1
ID : 2
Format : AC-3
Format/Info : Audio Coding 3
Codec ID : A_AC3
Duration : 1 h 30 min
Bit rate mode : Constant
Bit rate : 192 kb/s
Channel(s) : 2 channels
Channel positions : Front: L R
Sampling rate : 48.0 kHz
Frame rate : 31.250 FPS (1536 SPF)
Bit depth : 16 bits
Compression mode : Lossy
Delay relative to video : 16 ms
Stream size : 124 MiB (8%)
Title : 48 KHz, AC3, 2 ch ~192 Kbps - AVO [Гаврилов]
Language : Russian
Service kind : Complete Main
Default : Yes
Forced : No
Statistics Tags Issue : mkvmerge v21.0.0 ('Tardigrades Will Inherit The Earth') 64-bit 2018-03-04 15:24:25 / mkvmerge v21.0.0 ('Tardigrades Will Inherit The Earth') 64-bit 2018-03-04 15:24:25 / UTC 2018-03-04T01:52:59Z
FromStats_BitRate : 192000
FromStats_Duration : 01:30:11.936000000
FromStats_FrameCount : 169123
FromStats_StreamSize : 129886464

Audio #2
ID : 3
Format : AC-3
Format/Info : Audio Coding 3
Codec ID : A_AC3
Duration : 1 h 30 min
Bit rate mode : Constant
Bit rate : 192 kb/s
Channel(s) : 2 channels
Channel positions : Front: L R
Sampling rate : 48.0 kHz
Frame rate : 31.250 FPS (1536 SPF)
Bit depth : 16 bits
Compression mode : Lossy
Stream size : 124 MiB (8%)
Title : 48 KHz, AC3, 2 ch ~192 Kbps - Original
Language : English
Service kind : Complete Main
Default : No
Forced : No
Statistics Tags Issue : mkvmerge v21.0.0 ('Tardigrades Will Inherit The Earth') 64-bit 2018-03-04 15:24:25 / mkvmerge v21.0.0 ('Tardigrades Will Inherit The Earth') 64-bit 2018-03-04 15:24:25 / UTC 2018-03-04T01:52:59Z
FromStats_BitRate : 192000
FromStats_Duration : 01:30:12.032000000
FromStats_FrameCount : 169126
FromStats_StreamSize : 129888768

Menu
00:00:00.120 : :Chapter 1
00:07:46.160 : :Chapter 2
00:15:15.920 : :Chapter 3
00:22:45.680 : :Chapter 4
00:30:14.960 : :Chapter 5
00:37:44.960 : :Chapter 6
00:45:14.480 : :Chapter 7
00:52:44.000 : :Chapter 8
01:00:13.760 : :Chapter 9
01:07:43.520 : :Chapter 10
01:15:13.040 : :Chapter 11
01:22:42.800 : :Chapter 12
Скриншоты
 

Вложения

  • 12,2 KB Просмотры: 1
    Личеров 0
    Сидеров 0
    Файлов 3
    Объем 4,4 GB

Привет!

Мы группа людей которые решили помочь другим в решении их проблем, а так же пользователям с поиском самых свежих и качественных инфопродуктов. За 4 с небольшим месяца мы создали этот форум на который заходят ежедневно тысячи человек и посещаемость постоянно растёт. Мы создали панель лицензирования для защиты PHP скриптов от воровства и SEO панель для мониторинга наших сайтов и выбора верной стратегии их развития. Мы надеемся что то что мы создали пригодится Вам и возможно Вы поможете нам развиваться и совершенствоваться вместе с Вами.

Статистика форума

Темы
404.573
Сообщения
461.396
Пользователи
80.202
Новый пользователь
Алексей1975

Приложения форума для iOS и Android


У ркн там нет власти ;)
Приватные разговоры
Помощь Пользователи
    Вы не присоединились ни к одной комнате.