За последнюю неделю опубликовано 29 новых материалов.
Инструкция новичку Путеводитель по форуму Прокси для Telegram Показать подсказки , это бомба!

Скачать Казино / Casino (1995) HybridRip 1080p | P, P2, A | Open Matte бесплатно через торрент

  • Поучаствуй (в качестве покупателя) в любых пяти совместных покупках (кроме завершённых и "Моментальных") и получи группу "Новичок" навсегда -> ссылка на раздел
  • Получай до 480 рублей за каждого приглашенного пользователя!
    представляем Вам очередное расширение партнерской программы, подробности описаны тут -> ссылка
  • 90% материалов доступно к скачиванию после простой регистрации!
    Если же ты хочешь скачивать материалы без требования оставлять отзывы то получи группу "Новичок", 10 способов повышения описаны тут -> ссылка
  • К сожалению количество битых ссылок растет и мы уже не можем их оперативно восстанавливать поэтому просим помощи у каждого нашего пользователя.
    С сегодняшнего дня, за каждую восстановленную ссылку мы заплатим Вам.
    Подробнее тут -> ссылка
  • Перенесем твои заслуги с другого ресурса!
    Мы понимаем как сложно прокачивать аккаунты на форумах, вроде раскачал аккаунт, а тут появляется ресурс в 100 раз круче но тоже с системой прокачки и снова качать аккаунт...
    Предлагаем вам перенести Ваши заслуги на другом подобном ресурсе к нам.
    Подробности описаны тут -> ссылка
  • Вы можете получать по 2.5% с каждой покупки и продажи на маркете! Подробности в теме Партнёрская программа
Если Вы не хотите скачивать, Вы всегда можетепосмотретьонлайн, просто нажмите кнопку ниже :

Открыть плеер

Torrent_Bot

Торрент-Бот
Бот форума
4 Окт 2016
93
155
20
Название: Казино
Оригинальное название: Casino
Год выхода: 1995
Страна: США, Франция
Студия: Universal Pictures,Syalis DA,Légende Entreprises
Продолжительность: 02:58:20
Жанр: драма, криминал

Режиссер: Мартин Скорсезе
В ролях: Роберт Де Ниро, Шэрон Стоун, Джо Пеши, Джеймс Вудс, Дон Риклз, Алан Кинг, Кевин Поллак, Л. К. Джонс, Дик Смотерз, Фрэнк Винсент, ...

Перевод:
- Профессиональный (многоголосый, закадровый) ОРТ
- Профессиональный (двуголосый, закадровый) с BD EUR
- Профессиональный (двуголосый, закадровый) Ren TV
- Авторский (одноголосый, закадровый) Гаврилов Андрей Юрьевич
- Авторский (одноголосый, закадровый) Живов Юрий Викторович
- Авторский (одноголосый, закадровый) Карцев Петр
- Авторский (одноголосый, закадровый) Гаевский Евгений
- Субтитры

О фильме: Никто не может сравниться с Сэмом Ротстином. Никто не умеет зарабатывать деньги, как он. Никто не умеет работать так самоотверженно и аккуратно, как трудяга Сэм. За свои неоспоримые достоинства Ротстин получил кличку «Ас». И именно поэтому боссы мафии решили отправить Аса заправлять огромным шикарным казино в Лас-Вегасе. А чтобы Сэму никто не мешал работать, мафиози отправили вслед за Асом друга детства Ротстина — Никки Санторо, отпетого бандита и безжалостного головореза…



Кодек: x264
Качество: HybridRip 1080p
Видео: 1920x1080, 16000 kbps, 23,976 fps
Аудио #1: AC-3, 2 ch, 192 kbps (Rus) - MVO ОРТ
Аудио #2: AC-3, 6 ch, 448 kbps (Rus) - DVO BD EUR
Аудио #3: AC-3, 2 ch, 192 kbps (Rus) - DVO Ren TV
Аудио #4: AC-3, 6 ch, 640 kbps (Rus) - AVO Гаврилов Андрей Юрьевич
Аудио #5: AC-3, 6 ch, 640 kbps (Rus) - AVO Живов Юрий Викторович
Аудио #6: AC-3, 6 ch, 640 kbps (Rus) - AVO Карцев Петр
Аудио #7: AC-3, 6 ch, 640 kbps (Rus) - AVO Гаевский Евгений
Аудио #8: DTS, 6 ch, 1509 kbps (Eng)
Субтитры: русские (forced, full), английские
Спасибо за исходник

Дополнительная информация
Сравниваем с исходником:

MediaInfo
x264 [info]: frame I:1604 Avg QP:17.73 size:250474
x264 [info]: frame P:50350 Avg QP:20.39 size:123273
x264 [info]: frame B:204594 Avg QP:21.66 size: 72276
x264 [info]: consecutive B-frames: 1.2% 2.3% 2.1% 21.0% 8.6% 49.7% 6.5% 4.6% 3.4% 0.2% 0.1% 0.1% 0.3%

Общее
Уникальный идентификатор : 203749472565606197912249899510861729080 (0x9948B895DCCE7127852EB257C1D50D38)
Полное имя : Казино (Casino) 1995 HybridRip 1080p.mkv
Формат : Matroska
Версия формата : Version 2
Размер файла : 26,0 Гбайт
Продолжительность : 2 ч. 58 м.
Общий поток : 20,9 Мбит/сек
Дата кодирования : UTC 2018-09-06 07:22:42
Программа кодирования : mkvmerge v4.0.0 ('The Stars were mine') сборка от Jun 6 2010 16:18:42
Библиотека кодирования : libebml v1.0.0 + libmatroska v1.0.0

Видео
Идентификатор : 1
Формат : AVC
Формат/Информация : Advanced Video Codec
Профиль формата : High@L4.1
Параметр CABAC формата : Да
Параметр ReFrames формата : 4 кадра
Идентификатор кодека : V_MPEG4/ISO/AVC
Продолжительность : 2 ч. 58 м.
Битрейт : 16,0 Мбит/сек
Ширина : 1920 пикселей
Высота : 1080 пикселей
Соотношение сторон : 16:9
Режим частоты кадров : Постоянный
Частота кадров : 23,976 (24000/1001) кадра/сек
Цветовое пространство : YUV
Субдискретизация насыщенности : 4:2:0
Битовая глубина : 8 бит
Тип развёртки : Прогрессивная
Бит/(Пиксели*Кадры) : 0.322
Размер потока : 19,4 Гбайт (75%)
Библиотека кодирования : x264 core 146 r2538 121396c
Настройки программы : cabac=1 / ref=4 / deblock=1:-3:-3 / analyse=0x3:0x133 / me=umh / subme=11 / psy=1 / psy_rd=1.10:0.16 / mixed_ref=1 / me_range=32 / chroma_me=1 / trellis=2 / 8x8dct=1 / cqm=0 / deadzone=21,11 / fast_pskip=0 / chroma_qp_offset=-3 / threads=12 / lookahead_threads=2 / sliced_threads=0 / nr=0 / decimate=0 / interlaced=0 / bluray_compat=0 / constrained_intra=0 / bframes=12 / b_pyramid=2 / b_adapt=2 / b_bias=0 / direct=3 / weightb=1 / open_gop=0 / weightp=2 / keyint=240 / keyint_min=23 / scenecut=40 / intra_refresh=0 / rc_lookahead=60 / rc=2pass / mbtree=1 / bitrate=16000 / ratetol=1.0 / qcomp=0.60 / qpmin=0 / qpmax=69 / qpstep=4 / cplxblur=20.0 / qblur=0.5 / vbv_maxrate=50000 / vbv_bufsize=62500 / nal_hrd=none / filler=0 / ip_ratio=1.40 / aq=3:0.90
Язык : English
Default : Нет
Forced : Нет

Аудио #1
Идентификатор : 2
Формат : AC-3
Формат/Информация : Audio Coding 3
Расширение режима : CM (complete main)
Параметр Endianness формата : Big
Идентификатор кодека : A_AC3
Продолжительность : 2 ч. 58 м.
Вид битрейта : Постоянный
Битрейт : 192 Кбит/сек
Каналы : 2 канала
Расположение каналов : Front: L R
Частота : 48,0 КГц
Частота кадров : 31,250 кадров/сек (1536 spf)
Метод сжатия : С потерями
Размер потока : 245 Мбайт (1%)
Заголовок : MVO ОРТ
Язык : Russian
Default : Нет
Forced : Нет

Аудио #2
Идентификатор : 3
Формат : AC-3
Формат/Информация : Audio Coding 3
Расширение режима : CM (complete main)
Параметр Endianness формата : Big
Идентификатор кодека : A_AC3
Продолжительность : 2 ч. 58 м.
Вид битрейта : Постоянный
Битрейт : 448 Кбит/сек
Каналы : 6 каналов
Расположение каналов : Front: L C R, Side: L R, LFE
Частота : 48,0 КГц
Частота кадров : 31,250 кадров/сек (1536 spf)
Метод сжатия : С потерями
Размер потока : 572 Мбайт (2%)
Заголовок : DVO BD EUR
Язык : Russian
Default : Нет
Forced : Нет

Аудио #3
Идентификатор : 4
Формат : AC-3
Формат/Информация : Audio Coding 3
Расширение режима : CM (complete main)
Параметр Endianness формата : Big
Идентификатор кодека : A_AC3
Продолжительность : 2 ч. 58 м.
Вид битрейта : Постоянный
Битрейт : 192 Кбит/сек
Каналы : 2 канала
Расположение каналов : Front: L R
Частота : 48,0 КГц
Частота кадров : 31,250 кадров/сек (1536 spf)
Метод сжатия : С потерями
Размер потока : 245 Мбайт (1%)
Заголовок : DVO Ren TV
Язык : Russian
Default : Нет
Forced : Нет

Аудио #4
Идентификатор : 5
Формат : AC-3
Формат/Информация : Audio Coding 3
Расширение режима : CM (complete main)
Параметр Endianness формата : Big
Идентификатор кодека : A_AC3
Продолжительность : 2 ч. 58 м.
Вид битрейта : Постоянный
Битрейт : 640 Кбит/сек
Каналы : 6 каналов
Расположение каналов : Front: L C R, Side: L R, LFE
Частота : 48,0 КГц
Частота кадров : 31,250 кадров/сек (1536 spf)
Метод сжатия : С потерями
Размер потока : 817 Мбайт (3%)
Заголовок : AVO Гаврилов Андрей Юрьевич
Язык : Russian
Default : Нет
Forced : Нет

Аудио #5
Идентификатор : 6
Формат : AC-3
Формат/Информация : Audio Coding 3
Расширение режима : CM (complete main)
Параметр Endianness формата : Big
Идентификатор кодека : A_AC3
Продолжительность : 2 ч. 58 м.
Вид битрейта : Постоянный
Битрейт : 640 Кбит/сек
Каналы : 6 каналов
Расположение каналов : Front: L C R, Side: L R, LFE
Частота : 48,0 КГц
Частота кадров : 31,250 кадров/сек (1536 spf)
Метод сжатия : С потерями
Размер потока : 817 Мбайт (3%)
Заголовок : AVO Живов Юрий Викторович
Язык : Russian
Default : Нет
Forced : Нет

Аудио #6
Идентификатор : 7
Формат : AC-3
Формат/Информация : Audio Coding 3
Расширение режима : CM (complete main)
Параметр Endianness формата : Big
Идентификатор кодека : A_AC3
Продолжительность : 2 ч. 58 м.
Вид битрейта : Постоянный
Битрейт : 640 Кбит/сек
Каналы : 6 каналов
Расположение каналов : Front: L C R, Side: L R, LFE
Частота : 48,0 КГц
Частота кадров : 31,250 кадров/сек (1536 spf)
Метод сжатия : С потерями
Размер потока : 817 Мбайт (3%)
Заголовок : AVO Карцев Петр
Язык : Russian
Default : Нет
Forced : Нет

Аудио #7
Идентификатор : 8
Формат : AC-3
Формат/Информация : Audio Coding 3
Расширение режима : CM (complete main)
Параметр Endianness формата : Big
Идентификатор кодека : A_AC3
Продолжительность : 2 ч. 58 м.
Вид битрейта : Постоянный
Битрейт : 640 Кбит/сек
Каналы : 6 каналов
Расположение каналов : Front: L C R, Side: L R, LFE
Частота : 48,0 КГц
Частота кадров : 31,250 кадров/сек (1536 spf)
Метод сжатия : С потерями
Размер потока : 817 Мбайт (3%)
Заголовок : AVO Гаевский Евгений
Язык : Russian
Default : Нет
Forced : Нет

Аудио #8
Идентификатор : 9
Формат : DTS
Формат/Информация : Digital Theater Systems
Режим : 16
Параметр Endianness формата : Big
Идентификатор кодека : A_DTS
Продолжительность : 2 ч. 58 м.
Вид битрейта : Постоянный
Битрейт : 1509 Кбит/сек
Каналы : 6 каналов
Расположение каналов : Front: L C R, Side: L R, LFE
Частота : 48,0 КГц
Частота кадров : 93,750 кадра/сек (512 spf)
Битовая глубина : 24 бит
Метод сжатия : С потерями
Размер потока : 1,88 Гбайт (7%)
Язык : English
Default : Нет
Forced : Нет

Текст #1
Идентификатор : 10
Формат : UTF-8
Идентификатор кодека : S_TEXT/UTF8
Идентификатор кодека/Информация : UTF-8 Plain Text
Заголовок : Forced
Язык : Russian
Default : Нет
Forced : Нет

Текст #2
Идентификатор : 11
Формат : UTF-8
Идентификатор кодека : S_TEXT/UTF8
Идентификатор кодека/Информация : UTF-8 Plain Text
Язык : Russian
Default : Нет
Forced : Нет

Текст #3
Идентификатор : 12
Формат : UTF-8
Идентификатор кодека : S_TEXT/UTF8
Идентификатор кодека/Информация : UTF-8 Plain Text
Язык : English
Default : Нет
Forced : Нет

Меню
00:00:00.000 : en:00:00:00.000
00:04:56.627 : en:00:04:55.627
00:21:59.232 : en:00:21:58.232
00:27:50.584 : en:00:27:49.584
00:33:47.732 : en:00:33:46.732
00:38:58.168 : en:00:38:57.168
00:58:24.123 : en:00:58:23.123
01:06:12.300 : en:01:06:11.300
01:26:25.636 : en:01:26:24.636
01:31:50.753 : en:01:31:49.753
02:00:30.512 : en:02:00:29.512
02:14:11.375 : en:02:14:10.375
02:28:32.568 : en:02:28:31.568
02:39:56.793 : en:02:39:55.793
02:46:57.463 : en:02:46:56.463
02:50:13.118 : en:02:50:12.118
02:58:21.147 : en:02:58:20.147

 

Вложения

  • 131,1 KB Просмотры: 1
    Личеров 0
    Сидеров 0
    Файлов 1
    Объем 26 GB

Привет!

Мы группа людей которые решили помочь другим в решении их проблем, а так же пользователям с поиском самых свежих и качественных инфопродуктов. За 4 с небольшим месяца мы создали этот форум на который заходят ежедневно тысячи человек и посещаемость постоянно растёт. Мы создали панель лицензирования для защиты PHP скриптов от воровства и SEO панель для мониторинга наших сайтов и выбора верной стратегии их развития. Мы надеемся что то что мы создали пригодится Вам и возможно Вы поможете нам развиваться и совершенствоваться вместе с Вами.

Статистика форума

Темы
406.535
Сообщения
464.632
Пользователи
83.207
Новый пользователь
kingartur9719

Приложения форума для iOS и Android


У ркн там нет власти ;)
Приватные разговоры
Помощь Пользователи
    Вы не присоединились ни к одной комнате.