За последнюю неделю опубликовано 190 новых материалов.
Инструкция новичку Путеводитель по форуму Прокси для Telegram Показать подсказки , это бомба!

Скачать Карманные деньги / Milk Money (1994) WEB-DLRip-AVC | P бесплатно через торрент

  • Поучаствуй (в качестве покупателя) в любых пяти совместных покупках (кроме завершённых и "Моментальных") и получи группу "Новичок" навсегда -> ссылка на раздел
  • Получай до 480 рублей за каждого приглашенного пользователя!
    представляем Вам очередное расширение партнерской программы, подробности описаны тут -> ссылка
  • 90% материалов доступно к скачиванию после простой регистрации!
    Если же ты хочешь скачивать материалы без требования оставлять отзывы то получи группу "Новичок", 10 способов повышения описаны тут -> ссылка
  • К сожалению количество битых ссылок растет и мы уже не можем их оперативно восстанавливать поэтому просим помощи у каждого нашего пользователя.
    С сегодняшнего дня, за каждую восстановленную ссылку мы заплатим Вам.
    Подробнее тут -> ссылка
  • Перенесем твои заслуги с другого ресурса!
    Мы понимаем как сложно прокачивать аккаунты на форумах, вроде раскачал аккаунт, а тут появляется ресурс в 100 раз круче но тоже с системой прокачки и снова качать аккаунт...
    Предлагаем вам перенести Ваши заслуги на другом подобном ресурсе к нам.
    Подробности описаны тут -> ссылка
  • Вы можете получать по 2.5% с каждой покупки и продажи на маркете! Подробности в теме Партнёрская программа
Если Вы не хотите скачивать, Вы всегда можетепосмотретьонлайн, просто нажмите кнопку ниже :

Открыть плеер

Torrent_Bot

Торрент-Бот
Бот форума
4 Окт 2016
124
93
20


Информация о фильме
Название: Карманные деньги
Оригинальное название: Milk Money
Год выпуска: 1994
Жанр: мелодрама, комедия
Режиссер: Ричард Бенджамин
В ролях: Мелани Гриффит, Эд Харрис, Майкл Патрик Картер, Малкольм МакДауэлл, Энн Хеч, Кэйси Семашко, Филип Боско, Брайан Кристофер, Адам Лаворна, Кевин Сканнелл

О фильме:
Трое учеников начальной школы во главе с двенадцатилетним Фрэнком Уиллером, сложив свои карманные деньги, отправляются из тихого пригорода в город, чтобы за 103 доллара 62 цента посмотреть на голую женщину. Однако «взрослый» мир оказывается достаточно враждебным, и лишь с помощью случайной уличной красотки по имени Ви друзьям чудом удается избежать встречи с компанией сомнительных типов. Постепенно Фрэнк проникается симпатией к спасительнице и находит, что она могла бы быть ему идеальной мамой и подходящей женой его овдовевшему отцу.



Выпущено: США
Продолжительность: 01:44:47
Перевод: Профессиональный (многоголосый, закадровый)
Субтитры: Russian, English

Файл
Формат: Matroska
Качество: WEB-DLRip-AVC [исх.Amazon]
Видео: 958x540 at 25.00 fps, x264, ~1796 kbps, 0.139 bpp
Аудио: AC3, 2 ch, 192 Kbps - |MVO, Paramount Channel|
Формат субтитров: softsub (SRT)

***Релиз от:-=DoMiNo=-

M/I
General
Format : Matroska
Format version : Version 4
File size : 1.45 GiB
Duration : 1 h 44 min
Overall bit rate : 1 989 kb/s
Movie name : Карманные деньги.(1994).WEB-DLRip-AVC.[-=DoMiNo=-]
Encoded date : UTC 2019-12-23 07:26:09
Writing application : mkvmerge v41.0.0 ('Smarra') 64-bit
Writing library : libebml v1.3.9 + libmatroska v1.5.2
Attachments : poster / poster

Video
ID : 1
Format : AVC
Format/Info : Advanced Video Codec
Format profile : High@L4.1
Format settings : CABAC / 12 Ref Frames
Format settings, CABAC : Yes
Format settings, Reference : 12 frames
Codec ID : V_MPEG4/ISO/AVC
Duration : 1 h 44 min
Bit rate : 1 796 kb/s
Width : 958 pixels
Height : 540 pixels
Display aspect ratio : 16:9
Frame rate mode : Constant
Frame rate : 25.000 FPS
Color space : YUV
Chroma subsampling : 4:2:0
Bit depth : 8 bits
Scan type : Progressive
Bits/(Pixel*Frame) : 0.139
Stream size : 1.31 GiB (90%)
Title : RIP_BY_-=DoMiNo=-
Writing library : x264 core 157 r2958 57baac4
Encoding settings : cabac=1 / ref=12 / deblock=1:-2:-2 / analyse=0x3:0x133 / me=umh / subme=11 / psy=1 / psy_rd=1.00:0.00 / mixed_ref=1 / me_range=48 / chroma_me=1 / trellis=2 / 8x8dct=1 / cqm=0 / deadzone=21,11 / fast_pskip=0 / chroma_qp_offset=-2 / threads=6 / lookahead_threads=1 / sliced_threads=0 / nr=0 / decimate=0 / interlaced=0 / bluray_compat=0 / constrained_intra=0 / bframes=14 / b_pyramid=2 / b_adapt=2 / b_bias=0 / direct=3 / weightb=1 / open_gop=0 / weightp=2 / keyint=250 / keyint_min=25 / scenecut=40 / intra_refresh=0 / rc_lookahead=60 / rc=2pass / mbtree=0 / bitrate=1796 / ratetol=1.0 / qcomp=0.70 / qpmin=0 / qpmax=69 / qpstep=4 / cplxblur=20.0 / qblur=0.5 / vbv_maxrate=50000 / vbv_bufsize=62500 / nal_hrd=none / filler=0 / ip_ratio=1.40 / pb_ratio=1.30 / aq=3:1.00
Language : English
Default : Yes
Forced : No
Color range : Limited
Color primaries : BT.709
Transfer characteristics : BT.709
Matrix coefficients : BT.709

Audio
ID : 2
Format : AC-3
Format/Info : Audio Coding 3
Commercial name : Dolby Digital
Codec ID : A_AC3
Duration : 1 h 44 min
Bit rate mode : Constant
Bit rate : 192 kb/s
Channel(s) : 2 channels
Channel layout : L R
Sampling rate : 48.0 kHz
Frame rate : 31.250 FPS (1536 SPF)
Compression mode : Lossy
Stream size : 143 MiB (10%)
Title : MVO_[Paramount Channel]
Language : Russian
Service kind : Complete Main
Default : Yes
Forced : No

Text #1
ID : 3
Format : UTF-8
Codec ID : S_TEXT/UTF8
Codec ID/Info : UTF-8 Plain Text
Duration : 1 h 43 min
Bit rate : 91 b/s
Count of elements : 1197
Stream size : 69.8 KiB (0%)
Language : Russian
Default : No
Forced : No

Text #2
ID : 4
Format : UTF-8
Codec ID : S_TEXT/UTF8
Codec ID/Info : UTF-8 Plain Text
Duration : 1 h 39 min
Bit rate : 54 b/s
Count of elements : 1713
Stream size : 40.2 KiB (0%)
Language : English
Default : No
Forced : No

Menu
00:00:00.000 : :Глава 1
00:06:14.840 : :Глава 2
00:13:23.200 : :Глава 3
00:19:32.080 : :Глава 4
00:27:14.880 : :Глава 5
00:35:05.080 : :Глава 6
00:41:59.280 : :Глава 7
00:50:02.880 : :Глава 8
00:56:51.640 : :Глава 9
01:04:57.680 : :Глава 10
01:10:56.279 : :Глава 11
01:20:03.640 : :Глава 12
01:27:09.720 : :Глава 13
01:33:38.320 : :Глава 14
01:40:30.880 : :Глава 15
Скриншоты
 

Вложения

  • 59 KB Просмотры: 0
    Личеров 0
    Сидеров 0
    Файлов 1
    Объем 1,5 GB
Ваш e-mail не будет опубликован. Он потребуется для подтверждения Вашего поста.
Оформление текста Нажмите «Ввод», чтобы отправить ответ.

Привет!

Мы группа людей которые решили помочь другим в решении их проблем, а так же пользователям с поиском самых свежих и качественных инфопродуктов. За 4 с небольшим месяца мы создали этот форум на который заходят ежедневно тысячи человек и посещаемость постоянно растёт. Мы создали панель лицензирования для защиты PHP скриптов от воровства и SEO панель для мониторинга наших сайтов и выбора верной стратегии их развития. Мы надеемся что то что мы создали пригодится Вам и возможно Вы поможете нам развиваться и совершенствоваться вместе с Вами.

Статистика форума

Темы
378.666
Сообщения
417.755
Пользователи
49.157
Новый пользователь
Sayonara

Приложения форума для iOS и Android


У ркн там нет власти ;)
Приватные разговоры
Помощь Пользователи
    Вы не присоединились ни к одной комнате.