За последнюю неделю опубликовано 82 новых материалов.
Инструкция новичку Путеводитель по форуму Прокси для Telegram Показать подсказки , это бомба!

Скачать Карин / Karin [S01] (2005-2006) DVDRip от Deadmauvlad | L2 бесплатно через торрент

  • Поучаствуй (в качестве покупателя) в любых пяти совместных покупках (кроме завершённых и "Моментальных") и получи группу "Новичок" навсегда -> ссылка на раздел
  • Получай до 480 рублей за каждого приглашенного пользователя!
    представляем Вам очередное расширение партнерской программы, подробности описаны тут -> ссылка
  • 90% материалов доступно к скачиванию после простой регистрации!
    Если же ты хочешь скачивать материалы без требования оставлять отзывы то получи группу "Новичок", 10 способов повышения описаны тут -> ссылка
  • К сожалению количество битых ссылок растет и мы уже не можем их оперативно восстанавливать поэтому просим помощи у каждого нашего пользователя.
    С сегодняшнего дня, за каждую восстановленную ссылку мы заплатим Вам.
    Подробнее тут -> ссылка
  • Перенесем твои заслуги с другого ресурса!
    Мы понимаем как сложно прокачивать аккаунты на форумах, вроде раскачал аккаунт, а тут появляется ресурс в 100 раз круче но тоже с системой прокачки и снова качать аккаунт...
    Предлагаем вам перенести Ваши заслуги на другом подобном ресурсе к нам.
    Подробности описаны тут -> ссылка
  • Вы можете получать по 2.5% с каждой покупки и продажи на маркете! Подробности в теме Партнёрская программа

Torrent_Bot

Торрент-Бот
Бот форума
4 Окт 2016
104
152
20

Название: Карин
Оригинальное название: Karin
Год выхода: с 4 ноября 2005 по 12 мая 2006
Трансляция: пятница в 00:00 [ночной сеанс] на WOWOW
Жанр:вампиры, комедия, мистика, романтика, школа
Режиссер: Кимура Синъитиро
Автор оригинала: Кагэсаки Юна
Снято по манге: Карин
Возрастное ограничение:14 +
В главных ролях Хиллари Блейзер, Саюри Яаги, Кацуюки Конъиси, Челси Керто, Paul Pistore, Юка Иногути, Микако Такахаси, Хирофуми Нодзима, Дзюнпэй Такигути, Даи Мацумото

Краткое описание: Карин Маркер – дочь вампиров, сестра вампиров и сама вампир. Но в семье не без урода, и этим уродом является, увы, именно Карин. Во-первых, она любит дневной свет, плохо ориентируется в потемках и с удовольствием ходит в школу. Во-вторых, она не умеет наводить чары на укушенных и заставлять их забывать, что они стали жертвами вампирши. В-третьих (и это самое неудобное!), бедняжка Карин не столько употребляет, сколько вырабатывает кровь: она – вампир-производитель! Стоит ей хорошенько разволноваться, увидев потенциальную жертву (или привлекательного молодого человека), как кровь у нее начинает идти носом…




Перевод №1: Любительский Двухголосый (закадровый) | Кошка БесТиЯ & codevip
Перевод №2: Субтитры + Оригинал

Продолжительность: 24 серии x ~00:24:00
Студия: J.C.Staff
Страна: Япония/Japan

Качество: DVDRip | Исходник: Karin R2J DVD]
Контейнер: AVI
Кодек: XviD
Видео: 720x400 (16:9), 23.976 fps, 1 613 kb/s (0.234 bit/pixel)
Аудио №1: AC3, 48.0 kHz, 2 ch, 192 kb/s, CBR | | Кошка БесТиЯ & codevip
Аудио №2: AC3, 48.0 kHz, 2 ch, 192 kb/s, CBR | | Japan (Оригинал)
Субтитры: Русские (Полный Перевод)


MediaInfo
General
Complete name : F:DOWNLOAD MEGA[Deadmau- RAWS] Karin.2005.S01.RUS.JAP.DVDRip.Deadmauvlad[Deadmau- RAWS] Карин.2005.S01.RUS.JAP.DVDRip.Deadmauvlad.Ep.01.avi
Format : AVI
Format/Info : Audio Video Interleave
File size : 333 MiB
Duration : 23 min 9 s
Overall bit rate : 2 011 kb/s
Movie name : [Deadmau- RAWS] Карин.2005.S01.RUS.JAP.DVDRip.Deadmauvlad.Ep.01
Director : Encoder by Deadmauvlad
Genre : мистика, романтика, школа
Writing application : VirtualDubMod 1.5.10.3 | www.virtualdub-fr.org || (build 2550/release)
Original source form/Name : Аниме
Copyright : Encoder by Deadmauvlad
Comment : Encoder by Deadmauvlad

Video
ID : 0
Format : MPEG-4 Visual
Format profile : Advanced Simple@L5
Format settings : BVOP1 / Custom Matrix
Format settings, BVOP : 1
Format settings, QPel : No
Format settings, GMC : No warppoints
Format settings, Matrix : Custom
Codec ID : XVID
Codec ID/Hint : XviD
Duration : 23 min 9 s
Bit rate : 1 613 kb/s
Width : 720 pixels
Height : 400 pixels
Display aspect ratio : 16:9
Frame rate : 23.976 (24000/1001) FPS
Color space : YUV
Chroma subsampling : 4:2:0
Bit depth : 8 bits
Scan type : Progressive
Compression mode : Lossy
Bits/(Pixel*Frame) : 0.234
Stream size : 267 MiB (80%)
Writing library : XviD 73

Audio #1
ID : 1
Format : AC-3
Format/Info : Audio Coding 3
Commercial name : Dolby Digital
Codec ID : 2000
Duration : 23 min 9 s
Bit rate mode : Constant
Bit rate : 192 kb/s
Channel(s) : 2 channels
Channel layout : L R
Sampling rate : 48.0 kHz
Frame rate : 31.250 FPS (1536 SPF)
Bit depth : 16 bits
Compression mode : Lossy
Stream size : 31.8 MiB (10%)
Alignment : Split accross interleaves
Interleave, duration : 42 ms (1.00 video frame)
Interleave, preload duration : 500 ms
Service kind : Complete Main

Audio #2
ID : 2
Format : AC-3
Format/Info : Audio Coding 3
Commercial name : Dolby Digital
Codec ID : 2000
Duration : 23 min 9 s
Bit rate mode : Constant
Bit rate : 192 kb/s
Channel(s) : 2 channels
Channel layout : L R
Sampling rate : 48.0 kHz
Frame rate : 31.250 FPS (1536 SPF)
Bit depth : 16 bits
Compression mode : Lossy
Stream size : 31.8 MiB (10%)
Alignment : Split accross interleaves
Interleave, duration : 42 ms (1.00 video frame)
Interleave, preload duration : 500 ms
Service kind : Complete Main

Список эпизодов
01. Постыдное кровотечение / Bleeding is Embarrassing
02. Мои постыдные вкусы / My Affinity is Embarrassing
03. Постыдное счастье / Happiness is Embarrassing
04. Постыдное разоблачение / Being Exposed is Embarassing
05. Постыдное семейство / My Whole Family is Embarassing
06. Постыдное мамино веселье / My Lively Mother is Embarassing
07. Постыдное преследование / Being Chased is Embarassing
08. Постыдное открытие / Being Discovered is Embarassing
09. Постыдное прошлое / If I Turn Around...Embarrassng
10. Постыдный папа / Papa is Very Embarrassing
11. Постыдный летний бассейн / It's Summer! It's the Pool! It's Embarrassing!
12. Очень постыдный братец / Brother is really Embarrassing
13. Постыдное пробуждение / To be Targetted is Embarrassing
14. Постыдная ночь вдвоём / It is Embarrassing to be Together till Morning
15. Постыдное появление Эльды / Elda Appears! is Embarassing
16. Постыдная любовная история Эльды / Elda's Love Bana is Embarassing
17. Постыдное прощание с Эльдой / Farewell Elda, is Embarassing
18. Постыдная тайна братца / Brother's Secret is Embarassing
19. Постыдный канун рождества вдвоём / A Couple's Eve is Embarassing
20. Постыдный первый раз / This is the First...It's Embarassing
21. Постыдное "Что же делать?!" / What should I do, This is Embarassing
22. Постыдное блуждание / Lost Child
23. Постыдное прощание / Farewell is Embarassing
24. Постыдное навсегда вдвоём / It is Embarassing to be Together Always

Скриншоты
Резервные Скриншоты

Релиз / Автор рипа:Deadmauvlad ^_^

 

Вложения

  • 16,1 KB Просмотры: 0
    Личеров 0
    Сидеров 0
    Файлов 48
    Объем 7,8 GB

Привет!

Мы группа людей которые решили помочь другим в решении их проблем, а так же пользователям с поиском самых свежих и качественных инфопродуктов. За 4 с небольшим месяца мы создали этот форум на который заходят ежедневно тысячи человек и посещаемость постоянно растёт. Мы создали панель лицензирования для защиты PHP скриптов от воровства и SEO панель для мониторинга наших сайтов и выбора верной стратегии их развития. Мы надеемся что то что мы создали пригодится Вам и возможно Вы поможете нам развиваться и совершенствоваться вместе с Вами.

Статистика форума

Темы
404.536
Сообщения
461.421
Пользователи
80.057
Новый пользователь
hrywnia

Приложения форума для iOS и Android


У ркн там нет власти ;)
Приватные разговоры
Помощь Пользователи
    Вы не присоединились ни к одной комнате.