За последнюю неделю опубликовано 31 новых материалов.
Инструкция новичку Путеводитель по форуму Прокси для Telegram Показать подсказки , это бомба!

Скачать Каратель / The Punisher (1989) BDRip 720p | Maximum Penalty Edit | A бесплатно через торрент

  • Поучаствуй (в качестве покупателя) в любых пяти совместных покупках (кроме завершённых и "Моментальных") и получи группу "Новичок" навсегда -> ссылка на раздел
  • Получай до 480 рублей за каждого приглашенного пользователя!
    представляем Вам очередное расширение партнерской программы, подробности описаны тут -> ссылка
  • 90% материалов доступно к скачиванию после простой регистрации!
    Если же ты хочешь скачивать материалы без требования оставлять отзывы то получи группу "Новичок", 10 способов повышения описаны тут -> ссылка
  • К сожалению количество битых ссылок растет и мы уже не можем их оперативно восстанавливать поэтому просим помощи у каждого нашего пользователя.
    С сегодняшнего дня, за каждую восстановленную ссылку мы заплатим Вам.
    Подробнее тут -> ссылка
  • Перенесем твои заслуги с другого ресурса!
    Мы понимаем как сложно прокачивать аккаунты на форумах, вроде раскачал аккаунт, а тут появляется ресурс в 100 раз круче но тоже с системой прокачки и снова качать аккаунт...
    Предлагаем вам перенести Ваши заслуги на другом подобном ресурсе к нам.
    Подробности описаны тут -> ссылка
  • Вы можете получать по 2.5% с каждой покупки и продажи на маркете! Подробности в теме Партнёрская программа
Если Вы не хотите скачивать, Вы всегда можетепосмотретьонлайн, просто нажмите кнопку ниже :

Открыть плеер

Torrent_Bot

Торрент-Бот
Бот форума
4 Окт 2016
93
160
20

Информация о фильме
Название: Каратель
Оригинальное название: The Punisher
Год выхода: 1989
Жанр: боевик, триллер, драма, криминал
Режиссер: Марк Голдблатт
В ролях: Дольф Лундгрен, Луис Госсет мл., Ерун Краббе, Ким Мийори, Брайан Маршалл, Нэнси Эверхард, Бэрри Отто, Брайан Руни, Зошка Мизак, Кэндзи Ямаки

О фильме:
Полицейский Фрэнк Кастл с трудом пережил гибель семьи, его жена и дочь сгорели живьем во взорванном автомобиле. Теперь он стал судьей и палачом 125 гангстеров, которых он разыскал и приговорил к смерти. Его невозможно остановить. Но у него слишком много врагов…

Дополнительная информация: Это фанатская версия The Punisher (1989) Maximum Penalty Edit, автор этого творения ТHE CACTUS MAN - большое ему спасибо.
The Punisher (1989) Maximum Penalty Edit сделан из unrated BluRay и WORKPRINT. WORKPRINT был сделан из оригинального видео - betacam кассеты и имеет оптимальное качество видео, так писал сам Дольф в Facebook.
Отличия от прокатной версии прежде всего в двух глобальных изменениях: добавлен в начале кусок видео 16 мин., который был выброшен из готового фильма ; концовка фильма была полностью переснята, здесь содержатся обе версии. Кроме того есть небольшие порезы (вставки) в некоторых сценах, но ничего серьезного по времени. Всё это приводит почти к продолжит. в 110 минут.




Страна: Австралия, США
Студия: New World Pictures (Australia), New World Pictures
Продолжительность: 01:49:23
Перевод:
1. Авторский (одноголосый закадровый) [Д. Есарев] - Нормативная лексика
2. Авторский (одноголосый закадровый) [Д. Есарев] - Ненормативная лексика


MediaInfo:
Общее
Уникальный идентификатор : 174251188537235904490803631933485109253 (0x83178EE53483E8EF8F7E9F2F52F25005)
Полное имя : D:THE PUNISHER (1989) Maximum Penalty Edit [720p]THE PUNISHER (1989) Maximum Penalty Edit [720p].mkv
Формат : Matroska
Версия формата : Version 4 / Version 2
Размер файла : 3,20 Гбайт
Продолжительность : 1 ч. 49 м.
Общий поток : 4188 Кбит/сек
Дата кодирования : UTC 2015-10-25 08:35:42
Программа кодирования : mkvmerge v8.5.0 ('Vanishing Act') 32bit
Библиотека кодирования : libebml v1.3.1 + libmatroska v1.4.2

Видео
Идентификатор : 1
Формат : AVC
Формат/Информация : Advanced Video Codec
Профиль формата : [email protected].1
Параметр CABAC формата : Да
Параметр RefFrames формата : 4 кадра
Идентификатор кодека : V_MPEG4/ISO/AVC
Продолжительность : 1 ч. 49 м.
Битрейт : 3546 Кбит/сек
Ширина : 1280 пикселей
Высота : 704 пикселя
Соотношение сторон : 16:9
Режим частоты кадров : Постоянный
Частота кадров : 23,976 (24000/1001) кадра/сек
Цветовое пространство : YUV
Субдискретизация насыщенности : 4:2:0
Битовая глубина : 8 бит
Тип развёртки : Прогрессивная
Бит/(Пиксели*Кадры) : 0.164
Размер потока : 2,71 Гбайт (85%)
Заголовок : 720p
Библиотека кодирования : x264 core 130 r2273 b3065e6
Настройки программы : cabac=1 / ref=3 / deblock=1:0:0 / analyse=0x3:0x113 / me=hex / subme=7 / psy=1 / psy_rd=1.00:0.00 / mixed_ref=1 / me_range=16 / chroma_me=1 / trellis=1 / 8x8dct=1 / cqm=0 / deadzone=21,11 / fast_pskip=1 / chroma_qp_offset=-2 / threads=12 / lookahead_threads=2 / sliced_threads=0 / nr=0 / decimate=1 / interlaced=0 / bluray_compat=0 / constrained_intra=0 / bframes=3 / b_pyramid=2 / b_adapt=1 / b_bias=0 / direct=1 / weightb=1 / open_gop=0 / weightp=2 / keyint=240 / keyint_min=24 / scenecut=40 / intra_refresh=0 / rc_lookahead=40 / rc=crf / mbtree=1 / crf=20.0 / qcomp=0.60 / qpmin=0 / qpmax=69 / qpstep=4 / vbv_maxrate=62500 / vbv_bufsize=78125 / crf_max=0.0 / nal_hrd=none / ip_ratio=1.40 / aq=1:1.00
Язык : English
Default : Да
Forced : Нет
Цветовой диапазон : Limited
Основные цвета : BT.709
Характеристики трансфера : BT.709
Коэффициенты матрицы : BT.709

Аудио #1
Идентификатор : 2
Формат : AC-3
Формат/Информация : Audio Coding 3
Параметр Endianness формата : Big
Идентификатор кодека : A_AC3
Продолжительность : 1 ч. 49 м.
Вид битрейта : Постоянный
Битрейт : 224 Кбит/сек
Каналы : 2 канала
Расположение каналов : Front: L R
Частота : 48,0 КГц
Частота кадров : 31,250 кадров/сек (1536 SPF)
Битовая глубина : 16 бит
Метод сжатия : С потерями
Размер потока : 175 Мбайт (5%)
Заголовок : Есарев Д. (цензурный пер.)
Язык : Russian
ServiceKind/String : Complete Main
Default : Да
Forced : Нет

Аудио #2
Идентификатор : 3
Формат : AC-3
Формат/Информация : Audio Coding 3
Параметр Endianness формата : Big
Идентификатор кодека : A_AC3
Продолжительность : 1 ч. 49 м.
Вид битрейта : Постоянный
Битрейт : 224 Кбит/сек
Каналы : 2 канала
Расположение каналов : Front: L R
Частота : 48,0 КГц
Частота кадров : 31,250 кадров/сек (1536 SPF)
Битовая глубина : 16 бит
Метод сжатия : С потерями
Размер потока : 175 Мбайт (5%)
Заголовок : Есарев Д. (нецензурный пер.)
Язык : Russian
ServiceKind/String : Complete Main
Default : Нет
Forced : Нет

Аудио #3
Идентификатор : 4
Формат : AC-3
Формат/Информация : Audio Coding 3
Параметр Endianness формата : Big
Идентификатор кодека : A_AC3
Продолжительность : 1 ч. 49 м.
Вид битрейта : Постоянный
Битрейт : 192 Кбит/сек
Каналы : 2 канала
Расположение каналов : Front: L R
Частота : 48,0 КГц
Частота кадров : 31,250 кадров/сек (1536 SPF)
Битовая глубина : 16 бит
Метод сжатия : С потерями
Размер потока : 150 Мбайт (5%)
Заголовок : Английский (оригинал)
Язык : English
ServiceKind/String : Complete Main
Default : Нет
Forced : Нет



Файл
Кодек: x.264
Качество: BDRip 720p
Видео: MPEG4 Video (H264) 1280x704 23.976fps 3465 Kbps
Звук:
#1: Russian, 48.0 KHz, AC3, 2 ch, 224 Kbps - Есарев Д. (цензурный пер.)
#2: Russian, 48.0 KHz, AC3, 2 ch, 224 Kbps - Есарев Д. (нецензурный пер.)
#3: English, 48.0 KHz, AC3, 2 ch, 192 Kbps - Английский (оригинал)

Скриншоты
 

Вложения

  • 17,1 KB Просмотры: 1
    Личеров 0
    Сидеров 0
    Файлов 1
    Объем 3,2 GB

Привет!

Мы группа людей которые решили помочь другим в решении их проблем, а так же пользователям с поиском самых свежих и качественных инфопродуктов. За 4 с небольшим месяца мы создали этот форум на который заходят ежедневно тысячи человек и посещаемость постоянно растёт. Мы создали панель лицензирования для защиты PHP скриптов от воровства и SEO панель для мониторинга наших сайтов и выбора верной стратегии их развития. Мы надеемся что то что мы создали пригодится Вам и возможно Вы поможете нам развиваться и совершенствоваться вместе с Вами.

Статистика форума

Темы
406.621
Сообщения
465.091
Пользователи
84.541
Новый пользователь
b0nny

Приложения форума для iOS и Android


У ркн там нет власти ;)
Приватные разговоры
Помощь Пользователи
    Вы не присоединились ни к одной комнате.