За последнюю неделю опубликовано 177 новых материалов.
Инструкция новичку Путеводитель по форуму Прокси для Telegram Показать подсказки , это бомба!

Скачать Капкан / Crawl (2019) BDRip-AVC | D, A бесплатно через торрент

  • Поучаствуй (в качестве покупателя) в любых пяти совместных покупках (кроме завершённых и "Моментальных") и получи группу "Новичок" навсегда -> ссылка на раздел
  • Получай до 480 рублей за каждого приглашенного пользователя!
    представляем Вам очередное расширение партнерской программы, подробности описаны тут -> ссылка
  • 90% материалов доступно к скачиванию после простой регистрации!
    Если же ты хочешь скачивать материалы без требования оставлять отзывы то получи группу "Новичок", 10 способов повышения описаны тут -> ссылка
  • К сожалению количество битых ссылок растет и мы уже не можем их оперативно восстанавливать поэтому просим помощи у каждого нашего пользователя.
    С сегодняшнего дня, за каждую восстановленную ссылку мы заплатим Вам.
    Подробнее тут -> ссылка
  • Перенесем твои заслуги с другого ресурса!
    Мы понимаем как сложно прокачивать аккаунты на форумах, вроде раскачал аккаунт, а тут появляется ресурс в 100 раз круче но тоже с системой прокачки и снова качать аккаунт...
    Предлагаем вам перенести Ваши заслуги на другом подобном ресурсе к нам.
    Подробности описаны тут -> ссылка
  • Вы можете получать по 2.5% с каждой покупки и продажи на маркете! Подробности в теме Партнёрская программа
Если Вы не хотите скачивать, Вы всегда можетепосмотретьонлайн, просто нажмите кнопку ниже :

Открыть плеер

Torrent_Bot

Торрент-Бот
Бот форума
4 Окт 2016
124
94
20



Информация о фильме
Название: Капкан
Оригинальное название: Crawl
Год выхода: 2019
Жанр: Ужасы, триллер, драма, приключения
Режиссер: Александр Ажа
В ролях: Кая Скоделарио, Бэрри Пеппер, Морфидд Кларк, Росс Андерсон, Хосе Пальма, Джордж Сомнер, Энсон Бун, Эми Меткалф, Тина Прибичевич, Срна Васильевич, Колин Макфарлэйн, Аннамария Серда, Саванна Штейн, Йована Драгаш, Кристофер Ландри

О фильме:
Когда на Флориду обрушивается мощнейший ураган, Хейли игнорирует приказы об эвакуации, чтобы попытаться встретиться в этом хаосе с пропавшим отцом. Она обнаруживает его тяжелораненым в подвале их дома, где они оказываются в ловушке из-за прибывающей воды. Но это меньшее, чего им стоит бояться.



Страна: США, Сербия, Канада
Студия: Paramount Pictures, Raimi Productions
Продолжительность: 01:27:32
Перевод: Дубляж (Лицензия BD EUR) + Авторский, одноголосый (М. Яроцкий) + Оригинал

Файл
Кодек: x.264
Качество: BDRip-AVC | исх. BDRemux 1080р
Видео: h264 / 2300 kbps / 1024x432 / 23,976 fps
Аудио 1: 48 kHz / 6 ch / 384 kbps | Лицензия
Аудио 2: 48 kHz / 6 ch / 384 kbps | М. Яроцкий
Аудио 3: 48 kHz / 6 ch / 384 kbps | Оригинал
Субтитры: Русские, Английские

Релиз от: Alukard14

log
x264 [info]: frame I:845 Avg QP:14.91 size: 58316
x264 [info]: frame P:28762 Avg QP:18.12 size: 21362
x264 [info]: frame B:96316 Avg QP:20.65 size: 8786
x264 [info]: consecutive B-frames: 2.1% 3.6% 8.4% 27.2% 19.0% 31.7% 3.8% 1.3% 0.8% 0.5% 0.4% 0.4% 0.8%
x264 [info]: mb I I16..4: 12.8% 69.9% 17.2%
x264 [info]: mb P I16..4: 3.3% 15.1% 1.7% P16..4: 31.8% 35.9% 10.3% 0.0% 0.0% skip: 1.8%
x264 [info]: mb B I16..4: 0.7% 3.0% 0.3% B16..8: 37.3% 23.1% 3.7% direct: 5.6% skip:26.2% L0:46.5% L1:44.0% BI: 9.5%
x264 [info]: 8x8 transform intra:74.2% inter:66.6%
x264 [info]: direct mvs spatial:97.4% temporal:2.6%
x264 [info]: coded y,uvDC,uvAC intra: 80.8% 70.0% 43.8% inter: 28.2% 19.1% 7.7%
x264 [info]: i16 v,h,dc,p: 76% 2% 4% 17%
x264 [info]: i8 v,h,dc,ddl,ddr,vr,hd,vl,hu: 6% 8% 5% 10% 15% 13% 16% 12% 15%
x264 [info]: i4 v,h,dc,ddl,ddr,vr,hd,vl,hu: 7% 8% 4% 9% 16% 14% 16% 11% 16%
x264 [info]: i8c dc,h,v,p: 40% 30% 15% 15%
x264 [info]: Weighted P-Frames: Y:6.7% UV:2.9%
x264 [info]: ref P L0: 41.8% 8.1% 18.7% 7.5% 6.4% 4.5% 4.3% 2.4% 2.3% 1.8% 1.9% 0.4% 0.0%
x264 [info]: ref B L0: 66.2% 13.8% 7.1% 3.9% 2.7% 2.3% 1.8% 1.2% 0.7% 0.4%
x264 [info]: ref B L1: 92.1% 7.9%
x264 [info]: kb/s:2299.98
MediaInfo
Общее
Уникальный идентификатор : 177343218821207636258418491660827710832 (0x856B0FC2254C28BAA922260040615570)
Полное имя : E:TestCrawl.2019.BDRip-AVC.by.Alukard14.mkv
Формат : Matroska
Версия формата : Version 2
Размер файла : 2,11 Гбайт
Продолжительность : 1 ч. 27 м.
Общий поток : 3454 Кбит/сек
Дата кодирования : UTC 2019-12-08 15:55:14
Программа кодирования : mkvmerge v4.1.1 ('Bouncin' Back') сборка от Jul 3 2010 22:54:08
Библиотека кодирования : libebml v1.0.0 + libmatroska v1.0.0
Обложка : Yes
Attachments : cover.jpg

Видео
Идентификатор : 1
Формат : AVC
Формат/Информация : Advanced Video Codec
Профиль формата : High@L4.1
Настройки формата : CABAC / 11 Ref Frames
Параметр CABAC формата : Да
Параметр RefFrames формата : 11 кадров
Идентификатор кодека : V_MPEG4/ISO/AVC
Продолжительность : 1 ч. 27 м.
Битрейт : 2300 Кбит/сек
Ширина : 1024 пикселя
Высота : 432 пикселя
Соотношение сторон : 2,40:1
Режим частоты кадров : Постоянный
Частота кадров : 23,976 кадра/сек
Цветовое пространство : YUV
Субдискретизация насыщенности : 4:2:0
Битовая глубина : 8 бит
Тип развёртки : Прогрессивная
Бит/(Пиксели*Кадры) : 0.217
Размер потока : 1,37 Гбайт (65%)
Заголовок : Crawl (2019)
Библиотека кодирования : x264 core 148 r2638 7599210
Настройки программы : cabac=1 / ref=11 / deblock=1:-3:-3 / analyse=0x3:0x113 / me=umh / subme=11 / psy=1 / psy_rd=1.00:0.06 / mixed_ref=1 / me_range=48 / chroma_me=1 / trellis=2 / 8x8dct=1 / cqm=0 / deadzone=21,11 / fast_pskip=0 / chroma_qp_offset=-3 / threads=9 / lookahead_threads=2 / sliced_threads=0 / nr=0 / decimate=0 / interlaced=0 / bluray_compat=0 / constrained_intra=0 / bframes=12 / b_pyramid=2 / b_adapt=2 / b_bias=0 / direct=3 / weightb=1 / open_gop=0 / weightp=2 / keyint=240 / keyint_min=24 / scenecut=40 / intra_refresh=0 / rc_lookahead=40 / rc=2pass / mbtree=0 / bitrate=2300 / ratetol=1.0 / qcomp=0.60 / qpmin=0 / qpmax=69 / qpstep=4 / cplxblur=20.0 / qblur=0.5 / vbv_maxrate=14000 / vbv_bufsize=14000 / nal_hrd=none / filler=0 / ip_ratio=1.40 / pb_ratio=1.30 / aq=1:1.00
Язык : English
Default : Да
Forced : Нет

Аудио #1
Идентификатор : 2
Формат : AC-3
Формат/Информация : Audio Coding 3
Коммерческое название : Dolby Digital
Режим смешивания : Header stripping
Идентификатор кодека : A_AC3
Продолжительность : 1 ч. 27 м.
Вид битрейта : Постоянный
Битрейт : 384 Кбит/сек
Каналы : 6 каналов
ChannelLayout : L R C LFE Ls Rs
Частота : 48,0 КГц
Частота кадров : 31,250 кадров/сек (1536 SPF)
Битовая глубина : 16 бит
Метод сжатия : С потерями
Размер потока : 240 Мбайт (11%)
Заголовок : Дубляж (Лицензия BD EUR)
Язык : Russian
Default : Нет
Forced : Нет

Аудио #2
Идентификатор : 3
Формат : AC-3
Формат/Информация : Audio Coding 3
Коммерческое название : Dolby Digital
Режим смешивания : Header stripping
Идентификатор кодека : A_AC3
Продолжительность : 1 ч. 27 м.
Вид битрейта : Постоянный
Битрейт : 384 Кбит/сек
Каналы : 6 каналов
ChannelLayout : L R C LFE Ls Rs
Частота : 48,0 КГц
Частота кадров : 31,250 кадров/сек (1536 SPF)
Битовая глубина : 16 бит
Метод сжатия : С потерями
Размер потока : 240 Мбайт (11%)
Заголовок : Авторский, одноголосый (М. Яроцкий)
Язык : Russian
Default : Нет
Forced : Нет

Аудио #3
Идентификатор : 4
Формат : AC-3
Формат/Информация : Audio Coding 3
Коммерческое название : Dolby Digital
Режим смешивания : Header stripping
Идентификатор кодека : A_AC3
Продолжительность : 1 ч. 27 м.
Вид битрейта : Постоянный
Битрейт : 384 Кбит/сек
Каналы : 6 каналов
ChannelLayout : L R C LFE Ls Rs
Частота : 48,0 КГц
Частота кадров : 31,250 кадров/сек (1536 SPF)
Битовая глубина : 16 бит
Метод сжатия : С потерями
Размер потока : 240 Мбайт (11%)
Заголовок : Оригинал
Язык : English
Default : Нет
Forced : Нет

Текст #1
Идентификатор : 5
Формат : UTF-8
Идентификатор кодека : S_TEXT/UTF8
Идентификатор кодека/Информация : UTF-8 Plain Text
Заголовок : forced
Язык : Russian
Default : Да
Forced : Да

Текст #2
Идентификатор : 6
Формат : UTF-8
Идентификатор кодека : S_TEXT/UTF8
Идентификатор кодека/Информация : UTF-8 Plain Text
Заголовок : Full
Язык : Russian
Default : Нет
Forced : Нет

Текст #3
Идентификатор : 7
Формат : UTF-8
Идентификатор кодека : S_TEXT/UTF8
Идентификатор кодека/Информация : UTF-8 Plain Text
Заголовок : Full
Язык : English
Default : Нет
Forced : Нет

Меню
00:00:00.000 : :Chapter 01
00:07:51.805 : :Chapter 02
00:15:16.290 : :Chapter 03
00:22:15.459 : :Chapter 04
00:34:42.998 : :Chapter 05
00:42:15.283 : :Chapter 06
00:50:13.219 : :Chapter 07
00:57:13.221 : :Chapter 08
01:03:51.619 : :Chapter 09
01:08:56.299 : :Chapter 10
01:16:36.425 : :Chapter 11
01:23:10.819 : :Chapter 12
Скриншоты
 

Вложения

  • 11,5 KB Просмотры: 0
    Личеров 0
    Сидеров 0
    Файлов 1
    Объем 2,1 GB
Ваш e-mail не будет опубликован. Он потребуется для подтверждения Вашего поста.
Оформление текста Нажмите «Ввод», чтобы отправить ответ.

Привет!

Мы группа людей которые решили помочь другим в решении их проблем, а так же пользователям с поиском самых свежих и качественных инфопродуктов. За 4 с небольшим месяца мы создали этот форум на который заходят ежедневно тысячи человек и посещаемость постоянно растёт. Мы создали панель лицензирования для защиты PHP скриптов от воровства и SEO панель для мониторинга наших сайтов и выбора верной стратегии их развития. Мы надеемся что то что мы создали пригодится Вам и возможно Вы поможете нам развиваться и совершенствоваться вместе с Вами.

Статистика форума

Темы
378.741
Сообщения
417.998
Пользователи
49.625
Новый пользователь
Любчик Дубницький

Приложения форума для iOS и Android


У ркн там нет власти ;)
Приватные разговоры
Помощь Пользователи
    Вы не присоединились ни к одной комнате.