За последнюю неделю опубликовано 18 новых материалов.
Инструкция новичку Путеводитель по форуму Прокси для Telegram Показать подсказки , это бомба!

Скачать Капкан / Crawl (2019) BDRemux 1080p | D, A | Лицензия бесплатно через торрент

  • Поучаствуй (в качестве покупателя) в любых пяти совместных покупках (кроме завершённых и "Моментальных") и получи группу "Новичок" навсегда -> ссылка на раздел
  • Получай до 480 рублей за каждого приглашенного пользователя!
    представляем Вам очередное расширение партнерской программы, подробности описаны тут -> ссылка
  • 90% материалов доступно к скачиванию после простой регистрации!
    Если же ты хочешь скачивать материалы без требования оставлять отзывы то получи группу "Новичок", 10 способов повышения описаны тут -> ссылка
  • К сожалению количество битых ссылок растет и мы уже не можем их оперативно восстанавливать поэтому просим помощи у каждого нашего пользователя.
    С сегодняшнего дня, за каждую восстановленную ссылку мы заплатим Вам.
    Подробнее тут -> ссылка
  • Перенесем твои заслуги с другого ресурса!
    Мы понимаем как сложно прокачивать аккаунты на форумах, вроде раскачал аккаунт, а тут появляется ресурс в 100 раз круче но тоже с системой прокачки и снова качать аккаунт...
    Предлагаем вам перенести Ваши заслуги на другом подобном ресурсе к нам.
    Подробности описаны тут -> ссылка
  • Вы можете получать по 2.5% с каждой покупки и продажи на маркете! Подробности в теме Партнёрская программа
Если Вы не хотите скачивать, Вы всегда можетепосмотретьонлайн, просто нажмите кнопку ниже :

Открыть плеер

Torrent_Bot

Торрент-Бот
Бот форума
4 Окт 2016
122
115
20



Информация о фильме
Название: Капкан
Оригинальное название: Crawl
Год выхода: 2019
Жанр: Ужасы, триллер, драма, приключения
Режиссер: Александр Ажа
В ролях: Кая Скоделарио, Бэрри Пеппер, Морфидд Кларк, Росс Андерсон, Хосе Пальма, Джордж Сомнер, Энсон Бун, Эми Меткалф, Тина Прибичевич, Срна Васильевич, Колин Макфарлэйн, Аннамария Серда, Саванна Штейн, Йована Драгаш, Кристофер Ландри

О фильме: Когда на Флориду обрушивается мощнейший ураган, Хейли игнорирует приказы об эвакуации, чтобы попытаться встретиться в этом хаосе с пропавшим отцом. Она обнаруживает его тяжелораненым в подвале их дома, где они оказываются в ловушке из-за прибывающей воды. Но это меньшее, чего им стоит бояться.



Страна: США, Сербия, Канада
Студия: Paramount Pictures, Raimi Productions
Продолжительность: 01:27:32
Перевод 1: Профессиональный (дублированный) | Лицензия BD EUR
Перевод 2: Авторский (одноголосый, закадровый) | М. Яроцкий - Ненормативная лексика

Файл
Качество: BDRemux 1080p
Контейнер: MKV
Видео: MPEG-4 AVC, 1920x1080 (16:9), 28976 kbps, 23.976 fps
Аудио 1: Russian: Dolby Digital Audio, 6 ch, 48 kHz, 640 kbps, 16 bits - DUB, BD EUR
Аудио 2: Russian: DTS-HD Ma Audio, 8 ch, 48 kHz, 4873 kbps, 24-bit - AVO, М. Яроцкий
Аудио 3: English: DTS-HD Ma Audio, 8 ch, 48 kHz, 4860 kbps, 24-bit - Оригинал
Субтитры: Русские (Forced, Full (BD EUR, FOCS, Enigma)), английские

Примечание
Перевод М. Яроцкого доступен благодаря: maxxsss, sa1992, Литти, DarveSh, podorov92, stimco, bluejean. Работа со звуком Переводман.
Скриншоты
MediaInfo
General
Unique ID : 254492581399291510403320542568800256408 (0xBF757D0227A335609708278D7CE70198)
Complete name : G:Crawl.2019.REMUX.mkv
Format : Matroska
Format version : Version 4 / Version 2
File size : 24.1 GiB
Duration : 1 h 27 min
Overall bit rate mode : Variable
Overall bit rate : 39.4 Mb/s
Encoded date : UTC 2019-12-06 02:42:22
Writing application : mkvmerge v20.0.0 ('I Am The Sun') 64-bit
Writing library : libebml v1.3.5 + libmatroska v1.4.8

Video
ID : 1
Format : AVC
Format/Info : Advanced Video Codec
Format profile : High@L4.1
Format settings : CABAC / 4 Ref Frames
Format settings, CABAC : Yes
Format settings, RefFrames : 4 frames
Codec ID : V_MPEG4/ISO/AVC
Duration : 1 h 27 min
Bit rate mode : Variable
Bit rate : 29.0 Mb/s
Maximum bit rate : 32.3 Mb/s
Width : 1 920 pixels
Height : 1 080 pixels
Display aspect ratio : 16:9
Frame rate mode : Constant
Frame rate : 23.976 (24000/1001) FPS
Color space : YUV
Chroma subsampling : 4:2:0
Bit depth : 8 bits
Scan type : Progressive
Bits/(Pixel*Frame) : 0.583
Stream size : 17.7 GiB (74%)
Language : English
Default : Yes
Forced : No

Audio #1
ID : 2
Format : AC-3
Format/Info : Audio Coding 3
Codec ID : A_AC3
Duration : 1 h 27 min
Bit rate mode : Constant
Bit rate : 640 kb/s
Channel(s) : 6 channels
Channel positions : Front: L C R, Side: L R, LFE
Sampling rate : 48.0 kHz
Frame rate : 31.250 FPS (1536 SPF)
Bit depth : 16 bits
Compression mode : Lossy
Stream size : 401 MiB (2%)
Title : DUB, BD EUR
Language : Russian
Service kind : Complete Main
Default : Yes
Forced : No

Audio #2
ID : 3
Format : DTS
Format/Info : Digital Theater Systems
Format profile : MA / Core
Codec ID : A_DTS
Duration : 1 h 27 min
Bit rate mode : Variable / Constant
Bit rate : 4 873 kb/s / 1 509 kb/s
Channel(s) : 8 channels / 6 channels
Channel positions : Front: L C R, Side: L R, Back: L R, LFE / Front: L C R, Side: L R, LFE
Sampling rate : 48.0 kHz
Frame rate : 93.750 FPS (512 SPF)
Bit depth : 24 bits
Compression mode : Lossless / Lossy
Stream size : 2.98 GiB (12%)
Title : AVO, Yarotskiy / Kyberpunk
Language : Russian
Default : No
Forced : No

Audio #3
ID : 4
Format : DTS
Format/Info : Digital Theater Systems
Format profile : MA / Core
Codec ID : A_DTS
Duration : 1 h 27 min
Bit rate mode : Variable / Constant
Bit rate : 4 860 kb/s / 1 509 kb/s
Channel(s) : 8 channels / 6 channels
Channel positions : Front: L C R, Side: L R, Back: L R, LFE / Front: L C R, Side: L R, LFE
Sampling rate : 48.0 kHz
Frame rate : 93.750 FPS (512 SPF)
Bit depth : 24 bits
Compression mode : Lossless / Lossy
Stream size : 2.97 GiB (12%)
Language : English
Default : No
Forced : No

Text #1
ID : 5
Format : UTF-8
Codec ID : S_TEXT/UTF8
Codec ID/Info : UTF-8 Plain Text
Duration : 1 h 2 min
Bit rate : 1 b/s
Count of elements : 14
Stream size : 597 Bytes (0%)
Title : forced
Language : Russian
Default : Yes
Forced : Yes

Text #2
ID : 6
Format : UTF-8
Codec ID : S_TEXT/UTF8
Codec ID/Info : UTF-8 Plain Text
Duration : 1 h 26 min
Bit rate : 34 b/s
Count of elements : 583
Stream size : 22.0 KiB (0%)
Title : BD EUR
Language : Russian
Default : No
Forced : No

Text #3
ID : 7
Format : UTF-8
Codec ID : S_TEXT/UTF8
Codec ID/Info : UTF-8 Plain Text
Duration : 1 h 21 min
Bit rate : 38 b/s
Count of elements : 586
Stream size : 22.6 KiB (0%)
Title : FOCS
Language : Russian
Default : No
Forced : No

Text #4
ID : 8
Format : UTF-8
Codec ID : S_TEXT/UTF8
Codec ID/Info : UTF-8 Plain Text
Duration : 1 h 24 min
Bit rate : 44 b/s
Count of elements : 603
Stream size : 27.7 KiB (0%)
Title : Enigma
Language : Russian
Default : No
Forced : No

Text #5
ID : 9
Format : UTF-8
Codec ID : S_TEXT/UTF8
Codec ID/Info : UTF-8 Plain Text
Duration : 1 h 22 min
Bit rate : 26 b/s
Count of elements : 640
Stream size : 16.3 KiB (0%)
Language : English
Default : No
Forced : No

Menu
00:00:00.000 : :Chapter 01
00:07:51.805 : :Chapter 02
00:15:16.290 : :Chapter 03
00:22:15.459 : :Chapter 04
00:34:42.998 : :Chapter 05
00:42:15.283 : :Chapter 06
00:50:13.219 : :Chapter 07
00:57:13.221 : :Chapter 08
01:03:51.619 : :Chapter 09
01:08:56.299 : :Chapter 10
01:16:36.425 : :Chapter 11
01:23:10.819 : :Chapter 12
 

Вложения

  • 121,2 KB Просмотры: 0
    Личеров 0
    Сидеров 0
    Файлов 1
    Объем 24,1 GB

Привет!

Мы группа людей которые решили помочь другим в решении их проблем, а так же пользователям с поиском самых свежих и качественных инфопродуктов. За 4 с небольшим месяца мы создали этот форум на который заходят ежедневно тысячи человек и посещаемость постоянно растёт. Мы создали панель лицензирования для защиты PHP скриптов от воровства и SEO панель для мониторинга наших сайтов и выбора верной стратегии их развития. Мы надеемся что то что мы создали пригодится Вам и возможно Вы поможете нам развиваться и совершенствоваться вместе с Вами.

Статистика форума

Темы
385.039
Сообщения
430.161
Пользователи
62.678
Новый пользователь
ENE

Приложения форума для iOS и Android


У ркн там нет власти ;)
Приватные разговоры
Помощь Пользователи
    Вы не присоединились ни к одной комнате.