За последнюю неделю опубликовано 59 новых материалов.
Инструкция новичку Путеводитель по форуму Прокси для Telegram Показать подсказки , это бомба!

Скачать Капитан Марвел / Captain Marvel (2019) BDRip 1080p от Ash61 | 3D-Video | halfOU | IMAX Version | iTunes бесплатно через торрент

  • Поучаствуй (в качестве покупателя) в любых пяти совместных покупках (кроме завершённых и "Моментальных") и получи группу "Новичок" навсегда -> ссылка на раздел
  • Получай до 480 рублей за каждого приглашенного пользователя!
    представляем Вам очередное расширение партнерской программы, подробности описаны тут -> ссылка
  • 90% материалов доступно к скачиванию после простой регистрации!
    Если же ты хочешь скачивать материалы без требования оставлять отзывы то получи группу "Новичок", 10 способов повышения описаны тут -> ссылка
  • К сожалению количество битых ссылок растет и мы уже не можем их оперативно восстанавливать поэтому просим помощи у каждого нашего пользователя.
    С сегодняшнего дня, за каждую восстановленную ссылку мы заплатим Вам.
    Подробнее тут -> ссылка
  • Перенесем твои заслуги с другого ресурса!
    Мы понимаем как сложно прокачивать аккаунты на форумах, вроде раскачал аккаунт, а тут появляется ресурс в 100 раз круче но тоже с системой прокачки и снова качать аккаунт...
    Предлагаем вам перенести Ваши заслуги на другом подобном ресурсе к нам.
    Подробности описаны тут -> ссылка
  • Вы можете получать по 2.5% с каждой покупки и продажи на маркете! Подробности в теме Партнёрская программа
Если Вы не хотите скачивать, Вы всегда можетепосмотретьонлайн, просто нажмите кнопку ниже :

Открыть плеер

Torrent_Bot

Торрент-Бот
Бот форума
4 Окт 2016
90
168
20




Капитан Марвел
Captain Marvel
«Быстрее. Выше. Сильнее»
(IMAX version)


Год выпуска: 2019
Страна: США (Marvel Studios Inc.)
Жанр: фантастика, боевик, приключения
Продолжительность: 02:03:42

Перевод: Профессиональный дублированный - iTunes

Режиссеры: Анна Боден, Райан Флек / Anna Boden, Ryan Fleck



Роли исполняли (дублировали):

.............

Carol Danvers / Vers / Captain Marvel - Бри Ларсон (Юлия Горохова)
Nick Fury - Сэмюэл Л. Джексон (Владимир Антоник)
Talos / Keller - Бен Мендельсон (Вадим Медведев)
Yon-Rogg - Джуд Лоу (Василий Дахненко)
Supreme Intelligence / Dr. Wendy Lawson - Аннетт Бенинг (Ирина Пономарева)
Korath - Джимон Хонсу (Сергей Козик)
Ronan - Ли Пейс (Александр Марушев)
Maria Rambeau - Лашана Линч (Марьяна Спивак)
Minn-Erva - Джемма Чан (Юлия Чуракова)
Agent Coulson - Кларк Грегг (Андрей Казанцев)
.....
Stan Lee - Стэн Ли (Владимир Левашёв)
James Rhodes - Дон Чидл (Михаил Тихонов)
Steve Rogers - Крис Эванс (Даниил Эльдаров)
Natasha Romanoff - Скарлетт Йоханссон (Татьяна Шитова)
Bruce Banner - Марк Руффало (Алексей Мясников)


Описание: После столкновения с враждующими инопланетными расами, пилот военно-воздушных сил Кэрол Дэнверс обретает суперсилу и становится неуязвимой. Героине предстоит совладать со своими новыми способностями, чтобы противостоять могущественному врагу.



Доп. инфо: Версия IMAX - часть фильма идёт в аспекте 1,90:1 (см. скриншоты).
Главы проименованы по-английски как на BD 3D.

Знаете ли вы, что...
Анджелине Джоли предлагали 20 миллионов долларов за постановку фильма.
У Бри Ларсон аллергия на кошек, поэтому в сценах с Гусей использовалась кукла или компьютерная графика.
Имя кошки — Гуся — является отсылкой к персонажу Ника Брэдшо по кличке «Гусь» из фильма «Лучший стрелок».
Премьера: 27 февраля 2019 (7 марта 2019)
Кассовые сборы:$1 128 033 409




Качество: BDRip (by Ash61)
Контейнер: MKV
Формат 3D: Half OverUnder / Вертикальная анаморфная стереопара
Порядок ракурсов: левый ракурс первый



Видео: AVC / 1920х1080p / 23,976 fps / 9000 Kbps

Аудио:
#1 - Русский / AC3 / 48 KHz / 5.1 ch / 384 Kbps (Дубляж - iTunes)
#2 - Украинский / AC3 / 48 KHz / 2 ch / 192 Kbps (Дубляж - Line) (моно)
#3 - Английский / AC3 / 48 KHz / 5.1 ch / 640 Kbps (Original - BD 3D Eur)

Субтитры(SRT):
Вшитые (softsub):
#1 - Русские Форсированные (расширенные) (включены по умолчанию)
#2 - Русские Полные
#3 - Русские SDH
#4 - Украинские Форсированные [Ash61]
#5 - English Full
#6 - English SDH

Внешние (UTF-8):
#1 - Русские Форсированные (расширенные) (включены по умолчанию)
#2 - Русские SDH
#3 - Украинские Форсированные [Ash61]

MediaInfo
General
Unique ID : 170470490725968157971580446633244630969 (0x803F6C1A0A7990778688ED48FA0A1FB9)
Complete name : J:CaptainMarvel(2019)3D-hOU(Ash61)iTunesCaptainMarvel(2019)3D-hOU(Ash61)iTunes.mkv
Format : Matroska
Format version : Version 2
File size : 8.83 GiB
Duration : 2h 3mn
Overall bit rate : 10.2 Mbps
Movie name : Капитан Марвел / Captain Marvel (2019) in 3D
Encoded date : UTC 2019-06-22 15:36:48
Writing application : mkvmerge v5.8.0 ('No Sleep / Pillow') built on Sep 2 2012 15:37:04
Writing library : libebml v1.2.3 + libmatroska v1.3.0

Video
ID : 1
Format : AVC
Format/Info : Advanced Video Codec
Format profile : [email protected]
Format settings, CABAC : Yes
Format settings, ReFrames : 4 frames
Codec ID : V_MPEG4/ISO/AVC
Duration : 2h 3mn
Bit rate : 9 000 Kbps
Width : 1 920 pixels
Height : 1 080 pixels
Display aspect ratio : 16:9
Frame rate mode : Constant
Frame rate : 23.976 (24000/1001) fps
Color space : YUV
Chroma subsampling : 4:2:0
Bit depth : 8 bits
Scan type : Progressive
Bits/(Pixel*Frame) : 0.181
Stream size : 7.60 GiB (86%)
Title : BDRip by Ash61
Writing library : x264 core 146 r2538 121396c
Encoding settings : cabac=1 / ref=4 / deblock=1:-3:-3 / analyse=0x3:0x113 / me=umh / subme=10 / psy=1 / psy_rd=1.00:0.00 / mixed_ref=1 / me_range=32 / chroma_me=1 / trellis=2 / 8x8dct=1 / cqm=0 / deadzone=21,11 / fast_pskip=0 / chroma_qp_offset=-2 / threads=12 / lookahead_threads=3 / sliced_threads=0 / nr=0 / decimate=0 / interlaced=0 / bluray_compat=0 / constrained_intra=0 / bframes=10 / b_pyramid=2 / b_adapt=2 / b_bias=0 / direct=3 / weightb=1 / open_gop=0 / weightp=2 / keyint=250 / keyint_min=23 / scenecut=40 / intra_refresh=0 / rc_lookahead=60 / rc=2pass / mbtree=0 / bitrate=9000 / ratetol=1.0 / qcomp=0.70 / qpmin=0 / qpmax=69 / qpstep=4 / cplxblur=20.0 / qblur=0.5 / vbv_maxrate=40000 / vbv_bufsize=30000 / nal_hrd=none / filler=0 / frame-packing=4 / ip_ratio=1.40 / pb_ratio=1.30 / aq=1:0.70
Language : English
Default : Yes
Forced : No

Audio #1
ID : 2
Format : AC-3
Format/Info : Audio Coding 3
Mode extension : CM (complete main)
Format settings, Endianness : Big
Codec ID : A_AC3
Duration : 2h 3mn
Bit rate mode : Constant
Bit rate : 384 Kbps
Channel(s) : 6 channels
Channel positions : Front: L C R, Side: L R, LFE
Sampling rate : 48.0 KHz
Frame rate : 31.250 fps (1536 spf)
Compression mode : Lossy
Stream size : 340 MiB (4%)
Title : Дубляж (iTunes)
Language : Russian
Default : Yes
Forced : No

Audio #2
ID : 3
Format : AC-3
Format/Info : Audio Coding 3
Mode extension : CM (complete main)
Format settings, Endianness : Big
Codec ID : A_AC3
Duration : 2h 3mn
Bit rate mode : Constant
Bit rate : 192 Kbps
Channel(s) : 2 channels
Channel positions : Front: L R
Sampling rate : 48.0 KHz
Frame rate : 31.250 fps (1536 spf)
Compression mode : Lossy
Stream size : 170 MiB (2%)
Title : Дубляж (Line; моно)
Language : Ukrainian
Default : No
Forced : No

Audio #3
ID : 4
Format : AC-3
Format/Info : Audio Coding 3
Mode extension : CM (complete main)
Format settings, Endianness : Big
Codec ID : A_AC3
Duration : 2h 3mn
Bit rate mode : Constant
Bit rate : 640 Kbps
Channel(s) : 6 channels
Channel positions : Front: L C R, Side: L R, LFE
Sampling rate : 48.0 KHz
Frame rate : 31.250 fps (1536 spf)
Compression mode : Lossy
Stream size : 566 MiB (6%)
Title : Original (BD 3D Eur)
Language : English
Default : No
Forced : No

Text #1
ID : 5
Format : UTF-8
Codec ID : S_TEXT/UTF8
Codec ID/Info : UTF-8 Plain Text
Title : Форсированные (расширенные)
Language : Russian
Default : Yes
Forced : No

Text #2
ID : 6
Format : UTF-8
Codec ID : S_TEXT/UTF8
Codec ID/Info : UTF-8 Plain Text
Title : Полные
Language : Russian
Default : No
Forced : No

Text #3
ID : 7
Format : UTF-8
Codec ID : S_TEXT/UTF8
Codec ID/Info : UTF-8 Plain Text
Title : SDH
Language : Russian
Default : No
Forced : No

Text #4
ID : 8
Format : UTF-8
Codec ID : S_TEXT/UTF8
Codec ID/Info : UTF-8 Plain Text
Title : Форсированные [от Ash61]
Language : Ukrainian
Default : No
Forced : No

Text #5
ID : 9
Format : UTF-8
Codec ID : S_TEXT/UTF8
Codec ID/Info : UTF-8 Plain Text
Title : Full
Language : English
Default : No
Forced : No

Text #6
ID : 10
Format : UTF-8
Codec ID : S_TEXT/UTF8
Codec ID/Info : UTF-8 Plain Text
Title : SDH
Language : English
Default : No
Forced : No

Menu
00:00:00.000 : :1. "Dreams Again"
00:06:52.120 : :2. Search and Rescue
00:14:07.889 : :3. Memory Manipulation
00:23:18.272 : :4. Planet C-53
00:29:38.026 : :5. Subway Skrull
00:35:07.772 : :6. Searching for Answers
00:44:08.437 : :7. Project P.E.G.A.S.U.S.
00:50:43.499 : :8. Backup Arrives
00:56:18.625 : :9. Reunited
01:03:02.821 : :10. Revelation
01:11:17.398 : :11. "You are Carol Danvers"
01:17:49.164 : :12. Skrull Survivors
01:27:03.051 : :13. "Finally Set Free"
01:33:22.430 : :14. Starforce Battle
01:40:51.796 : :15. Ronan's Offensive
01:46:25.087 : :16. Taking the Initiative
01:52:49.888 : :17. End Credits
Скриншоты
Для оценки 3Д - Анимированные скриныКаталог фильмов, выходивших в 3Д, со ссылками (вер. 1.03.2019)



О форматах и методах просмотра 3D


 

Вложения

  • 45,4 KB Просмотры: 1
    Личеров 0
    Сидеров 0
    Файлов 4
    Объем 8,8 GB

Привет!

Мы группа людей которые решили помочь другим в решении их проблем, а так же пользователям с поиском самых свежих и качественных инфопродуктов. За 4 с небольшим месяца мы создали этот форум на который заходят ежедневно тысячи человек и посещаемость постоянно растёт. Мы создали панель лицензирования для защиты PHP скриптов от воровства и SEO панель для мониторинга наших сайтов и выбора верной стратегии их развития. Мы надеемся что то что мы создали пригодится Вам и возможно Вы поможете нам развиваться и совершенствоваться вместе с Вами.

Статистика форума

Темы
410.941
Сообщения
469.355
Пользователи
88.281
Новый пользователь
akdhffos

Приложения форума для iOS и Android


У ркн там нет власти ;)
Приватные разговоры
Помощь Пользователи
    Вы не присоединились ни к одной комнате.