За последнюю неделю опубликовано 64 новых материалов.
Инструкция новичку Путеводитель по форуму Прокси для Telegram Показать подсказки , это бомба!

Скачать Каникулы в Вегасе / Vegas Vacation (1997) BDRip 1080p | P бесплатно через торрент

  • Поучаствуй (в качестве покупателя) в любых пяти совместных покупках (кроме завершённых и "Моментальных") и получи группу "Новичок" навсегда -> ссылка на раздел
  • Получай до 480 рублей за каждого приглашенного пользователя!
    представляем Вам очередное расширение партнерской программы, подробности описаны тут -> ссылка
  • 90% материалов доступно к скачиванию после простой регистрации!
    Если же ты хочешь скачивать материалы без требования оставлять отзывы то получи группу "Новичок", 10 способов повышения описаны тут -> ссылка
  • К сожалению количество битых ссылок растет и мы уже не можем их оперативно восстанавливать поэтому просим помощи у каждого нашего пользователя.
    С сегодняшнего дня, за каждую восстановленную ссылку мы заплатим Вам.
    Подробнее тут -> ссылка
  • Перенесем твои заслуги с другого ресурса!
    Мы понимаем как сложно прокачивать аккаунты на форумах, вроде раскачал аккаунт, а тут появляется ресурс в 100 раз круче но тоже с системой прокачки и снова качать аккаунт...
    Предлагаем вам перенести Ваши заслуги на другом подобном ресурсе к нам.
    Подробности описаны тут -> ссылка
  • Вы можете получать по 2.5% с каждой покупки и продажи на маркете! Подробности в теме Партнёрская программа
Если Вы не хотите скачивать, Вы всегда можетепосмотретьонлайн, просто нажмите кнопку ниже :

Открыть плеер

Torrent_Bot

Торрент-Бот
Бот форума
4 Окт 2016
92
160
20

Название: Каникулы в Вегасе
Оригинальное название: Vegas Vacation
Год выхода: 1997
Страна: США
Студия: Warner Bros., Jerry Weintraub Productions, National Lampoon
Продолжительность: 01:34:31
Жанр: комедия

Режиссер: Стивен Кесслер
В ролях: Чеви Чейз, Беверли Д’Анджело, Рэнди Куэйд, Итэн Эмбри, Марисоль Николс, Мириам Флинн, Шаэ Д’Лин, Уэйн Ньютон, Зигфрид Фишбахер, Рой Хорн, ...

Перевод:
- Профессиональный (многоголосый, закадровый) ?
- Профессиональный (многоголосый, закадровый) тв. Россия
- Профессиональный (многоголосый, закадровый) Варус Видео

О фильме: Семейство Грисуолдов во главе с папой Кларком полным составом отправляется на отдых в Лас-Вегас. Лас-Вегас, традиционно известный как игорный и развлекательный центр, встречает гостей во всем великолепии. Цирк, эстрада, карнавальные шествия и, конечно, бесчисленные казино, - ну как тут не соблазниться и не попытать счастья?!
Папа Кларк решает, что пусть вся семья развлекается каждый на свой лад. Его жена Эллен вначале возражает, но недостаточно активно. Ее тянет послушать блестящее исполнение песен местной знаменитости Уэйна Ньютона…



Кодек: x264
Качество: BDRip 1080p
Видео: 1920x1080, 14000 kbps, 23,976 fps
Аудио #1: AC-3, 6 ch, 448 kbps (Rus) - MVO
Аудио #2: AC-3, 2 ch, 192 kbps (Rus) - MVO Россия
Аудио #3: AC-3, 2 ch, 192 kbps (Rus) - MVO Варус Видео
Аудио #4: DTS, 6 ch, 1509 kbps (Eng)
Субтитры: английские

Дополнительная информация
За исходник спасибо - селезень
MediaInfo
x264 [info]: frame I:1000 Avg QP:17.95 size:240234
x264 [info]: frame P:33818 Avg QP:20.97 size:121046
x264 [info]: frame B:101167 Avg QP:22.73 size: 55151
x264 [info]: consecutive B-frames: 1.4% 3.7% 3.1% 74.0% 4.8% 5.1% 3.0% 4.3% 0.1% 0.0% 0.0% 0.1% 0.0% 0.0% 0.4%

Общее
Уникальный идентификатор : 213298296350765529370968834494303572757 (0xA077C1F2430775489036418D2B441315)
Полное имя : Каникулы в Вегасе (Vegas Vacation) 1997 BDRip 1080p.mkv
Формат : Matroska
Версия формата : Version 2
Размер файла : 10,8 Гбайт
Продолжительность : 1 ч. 34 м.
Общий поток : 16,3 Мбит/сек
Дата кодирования : UTC 2020-08-25 11:18:27
Программа кодирования : mkvmerge v4.0.0 ('The Stars were mine') сборка от Jun 6 2010 16:18:42
Библиотека кодирования : libebml v1.0.0 + libmatroska v1.0.0

Видео
Идентификатор : 1
Формат : AVC
Формат/Информация : Advanced Video Codec
Профиль формата : [email protected]
Параметр CABAC формата : Да
Параметр ReFrames формата : 4 кадра
Идентификатор кодека : V_MPEG4/ISO/AVC
Продолжительность : 1 ч. 34 м.
Битрейт : 14,0 Мбит/сек
Ширина : 1920 пикселей
Высота : 1080 пикселей
Соотношение сторон : 16:9
Режим частоты кадров : Постоянный
Частота кадров : 23,976 (24000/1001) кадра/сек
Цветовое пространство : YUV
Субдискретизация насыщенности : 4:2:0
Битовая глубина : 8 бит
Тип развёртки : Прогрессивная
Бит/(Пиксели*Кадры) : 0.282
Размер потока : 9,02 Гбайт (84%)
Библиотека кодирования : x264 core 146 r2538 121396c
Настройки программы : cabac=1 / ref=4 / deblock=1:-1:-1 / analyse=0x3:0x133 / me=umh / subme=11 / psy=1 / psy_rd=1.00:0.00 / mixed_ref=1 / me_range=32 / chroma_me=1 / trellis=2 / 8x8dct=1 / cqm=0 / deadzone=21,11 / fast_pskip=0 / chroma_qp_offset=-2 / threads=12 / lookahead_threads=2 / sliced_threads=0 / nr=0 / decimate=0 / interlaced=0 / bluray_compat=0 / constrained_intra=0 / bframes=14 / b_pyramid=2 / b_adapt=2 / b_bias=0 / direct=3 / weightb=1 / open_gop=0 / weightp=2 / keyint=240 / keyint_min=23 / scenecut=40 / intra_refresh=0 / rc=2pass / mbtree=0 / bitrate=14000 / ratetol=1.0 / qcomp=0.60 / qpmin=0 / qpmax=69 / qpstep=4 / cplxblur=20.0 / qblur=0.5 / ip_ratio=1.40 / pb_ratio=1.30 / aq=3:0.80
Язык : English
Default : Нет
Forced : Нет

Аудио #1
Идентификатор : 2
Формат : AC-3
Формат/Информация : Audio Coding 3
Расширение режима : CM (complete main)
Параметр Endianness формата : Big
Идентификатор кодека : A_AC3
Продолжительность : 1 ч. 34 м.
Вид битрейта : Постоянный
Битрейт : 448 Кбит/сек
Каналы : 6 каналов
Расположение каналов : Front: L C R, Side: L R, LFE
Частота : 48,0 КГц
Частота кадров : 31,250 кадров/сек (1536 spf)
Метод сжатия : С потерями
Размер потока : 303 Мбайт (3%)
Заголовок : MVO
Язык : Russian
Default : Нет
Forced : Нет

Аудио #2
Идентификатор : 3
Формат : AC-3
Формат/Информация : Audio Coding 3
Расширение режима : CM (complete main)
Параметр Endianness формата : Big
Идентификатор кодека : A_AC3
Продолжительность : 1 ч. 34 м.
Вид битрейта : Постоянный
Битрейт : 192 Кбит/сек
Каналы : 2 канала
Расположение каналов : Front: L R
Частота : 48,0 КГц
Частота кадров : 31,250 кадров/сек (1536 spf)
Метод сжатия : С потерями
Размер потока : 130 Мбайт (1%)
Заголовок : MVO Россия
Язык : Russian
Default : Нет
Forced : Нет

Аудио #3
Идентификатор : 4
Формат : AC-3
Формат/Информация : Audio Coding 3
Расширение режима : CM (complete main)
Параметр Endianness формата : Big
Идентификатор кодека : A_AC3
Продолжительность : 1 ч. 34 м.
Вид битрейта : Постоянный
Битрейт : 192 Кбит/сек
Каналы : 2 канала
Расположение каналов : Front: L R
Частота : 48,0 КГц
Частота кадров : 31,250 кадров/сек (1536 spf)
Метод сжатия : С потерями
Размер потока : 130 Мбайт (1%)
Заголовок : MVO Варус Видео
Язык : Russian
Default : Нет
Forced : Нет

Аудио #4
Идентификатор : 5
Формат : DTS
Формат/Информация : Digital Theater Systems
Режим : 16
Параметр Endianness формата : Big
Идентификатор кодека : A_DTS
Продолжительность : 1 ч. 34 м.
Вид битрейта : Постоянный
Битрейт : 1509 Кбит/сек
Каналы : 6 каналов
Расположение каналов : Front: L C R, Side: L R, LFE
Частота : 48,0 КГц
Частота кадров : 93,750 кадра/сек (512 spf)
Битовая глубина : 24 бит
Метод сжатия : С потерями
Размер потока : 1020 Мбайт (9%)
Язык : English
Default : Нет
Forced : Нет

Текст #1
Идентификатор : 6
Формат : UTF-8
Идентификатор кодека : S_TEXT/UTF8
Идентификатор кодека/Информация : UTF-8 Plain Text
Язык : English
Default : Нет
Forced : Нет

Текст #2
Идентификатор : 7
Формат : UTF-8
Идентификатор кодека : S_TEXT/UTF8
Идентификатор кодека/Информация : UTF-8 Plain Text
Заголовок : SDH
Язык : English
Default : Нет
Forced : Нет

 

Вложения

  • 54,8 KB Просмотры: 0
    Личеров 0
    Сидеров 0
    Файлов 1
    Объем 10,8 GB

Привет!

Мы группа людей которые решили помочь другим в решении их проблем, а так же пользователям с поиском самых свежих и качественных инфопродуктов. За 4 с небольшим месяца мы создали этот форум на который заходят ежедневно тысячи человек и посещаемость постоянно растёт. Мы создали панель лицензирования для защиты PHP скриптов от воровства и SEO панель для мониторинга наших сайтов и выбора верной стратегии их развития. Мы надеемся что то что мы создали пригодится Вам и возможно Вы поможете нам развиваться и совершенствоваться вместе с Вами.

Статистика форума

Темы
406.657
Сообщения
465.103
Пользователи
84.681
Новый пользователь
natalymak

Приложения форума для iOS и Android


У ркн там нет власти ;)
Приватные разговоры
Помощь Пользователи
    Вы не присоединились ни к одной комнате.