За последнюю неделю опубликовано 49 новых материалов.
Инструкция новичку Путеводитель по форуму Прокси для Telegram Показать подсказки , это бомба!

Скачать Каникулы Петрова и Васечкина. Обыкновенные и невероятные (1984) DVD5 бесплатно через торрент

  • Поучаствуй (в качестве покупателя) в любых пяти совместных покупках (кроме завершённых и "Моментальных") и получи группу "Новичок" навсегда -> ссылка на раздел
  • Получай до 480 рублей за каждого приглашенного пользователя!
    представляем Вам очередное расширение партнерской программы, подробности описаны тут -> ссылка
  • 90% материалов доступно к скачиванию после простой регистрации!
    Если же ты хочешь скачивать материалы без требования оставлять отзывы то получи группу "Новичок", 10 способов повышения описаны тут -> ссылка
  • К сожалению количество битых ссылок растет и мы уже не можем их оперативно восстанавливать поэтому просим помощи у каждого нашего пользователя.
    С сегодняшнего дня, за каждую восстановленную ссылку мы заплатим Вам.
    Подробнее тут -> ссылка
  • Перенесем твои заслуги с другого ресурса!
    Мы понимаем как сложно прокачивать аккаунты на форумах, вроде раскачал аккаунт, а тут появляется ресурс в 100 раз круче но тоже с системой прокачки и снова качать аккаунт...
    Предлагаем вам перенести Ваши заслуги на другом подобном ресурсе к нам.
    Подробности описаны тут -> ссылка
  • Вы можете получать по 2.5% с каждой покупки и продажи на маркете! Подробности в теме Партнёрская программа
Если Вы не хотите скачивать, Вы всегда можетепосмотретьонлайн, просто нажмите кнопку ниже :

Открыть плеер

Torrent_Bot

Торрент-Бот
Бот форума
4 Окт 2016
91
164
20
Оригинальное название: Каникулы Петрова и Васечкина, обыкновенные и невероятные
Год выпуска: 1984
Жанр: Комедия, семейный
Выпущено: СССР, Одесская киностудия
Режиссер: Владимир Алеников
В ролях: Егор Дружинин, Дмитрий Барков, Инна Аленикова, Инга Ильм, Саша Варакин, Лена Делибаш, Саша Камона, Борис Яновский, Гоги Замбахидзе, Михаил Салов, Алеша Исаев, Настя Уланова, Наташа Казакевич, Тамуна Беридзе, Софико Чиаурели, Аркадий Шалолашвили, Ираклий Учанейшвили, Филипп Алеников, Володя Шаповалов
О фильме: Музыкальная кинокомедия о веселых приключениях двух друзей — Васи Петрова и Пети Васечкина, знакомых по фильму «Приключения Петрова и Васечкина». Неистощимые на выдумки ребята, ученики четвертого класса, повзрослели, но с ними каждый день опять что-нибудь да приключается, даже во время летних каникул.
mediainfo
Общее
Полное имя : ...Kanikuli.Petrova.i.Vasechkina.obiknovennie.i.neverojatnie.(2.serii.iz.2).1984.DVD-5VIDEO_TSVTS_02_1.VOB
Формат : MPEG-PS
Размер файла : 1024 Мбайт
Продолжительность : 31 м.
Общий поток : 4538 Кбит/сек

Видео
Идентификатор : 224 (0xE0)
Формат : MPEG Video
Версия формата : Version 2
Профиль формата : [email protected]
Параметр BVOP формата : Да
Параметр матрицы формата : По умолчанию
Параметры GOP формата : M=3, N=12
Продолжительность : 31 м.
Вид битрейта : Переменный
Битрейт : 4256 Кбит/сек
Номинальный битрейт : 8500 Кбит/сек
Ширина : 720 пикс.
Высота : 576 пикс.
Соотношение сторон : 4:3
Частота кадров : 25,000 кадр/сек
Стандарт вещания : PAL
Цветовое пространство : YUV
Подвыборка цветности : 4:2:0
Битовая глубина : 8 бит
Тип развёртки : Чересстрочная
Порядок развёртки : Верхнее поле первое
Метод сжатия : С потерями
Бит/(Пиксели*Кадры) : 0.410
Размер потока : 960 Мбайт (94%)

Аудио
Идентификатор : 189 (0xBD)-128 (0x80)
Формат : AC-3
Формат/Информация : Audio Coding 3
Расширение режима : CM (complete main)
Режим смешивания : DVD-Video
Продолжительность : 31 м.
Вид битрейта : Постоянный
Битрейт : 192 Кбит/сек
Каналы : 2 канала
Расположение каналов : Front: L R
Частота : 48,0 КГц
Битовая глубина : 16 бит
Метод сжатия : С потерями
Задержка видео : -80 мс.
Размер потока : 43,3 Мбайт (4%)

Меню
Качество: DVD
Видео: PAL 4:3 ([email protected]) VBR
Аудио: Русский (Dolby AC3, 2 ch)
Размер: 4.36 ГБ
Продолжительность: 2 х ~ 01:07:28
Язык: Русский
Сканы и обложки, для тех кто решил закатать, есть выбор :)


8249592cb0b9c9b840c0b597ec27714c.jpg0532895568119cbef0d77afb5e2fc087.jpg98c19f21a5c53a5555baf3ff99590f82.jpg796a13538dc6c31b6ce2a839f91a902d.jpg3ac97d12ccda627aef1501c77da2fa1a.jpg892ca0e6627dee305c053b61fcca7176.jpg970e6cdebb6e1ecaf40232d6a086be0f.jpg4398498e28479cea14ac38962e3d76a5.jpg850007a6eade6043d23e964623801a50.jpg7a77239ae97bbd47fec2d1da1f86a3c7.jpg036f395734ac7eb84c2c25eae566a0f0.jpgc5f738a883340c1c716d20a6148dbdf2.jpgcfc067117c0b0bbf284f8a108893e107.jpg2ea907ae7d64966215e0a59d767e2d3e.jpg605a5f133b06cc421d49f3f640bddb63.jpg
df6fd743c14f0113f629dd8739040ba4.png2dc14af30666cbaaa7f411e26315f2b6.png8c8c7d23816d334840cca30ede4704e3.jpg картинка удалена, слишком много просмотров (нездоровый интерес, думаю я. (глянул статистику ууууууууууу.... все 2-3 а эта за 40+))
 

Вложения

Привет!

Мы группа людей которые решили помочь другим в решении их проблем, а так же пользователям с поиском самых свежих и качественных инфопродуктов. За 4 с небольшим месяца мы создали этот форум на который заходят ежедневно тысячи человек и посещаемость постоянно растёт. Мы создали панель лицензирования для защиты PHP скриптов от воровства и SEO панель для мониторинга наших сайтов и выбора верной стратегии их развития. Мы надеемся что то что мы создали пригодится Вам и возможно Вы поможете нам развиваться и совершенствоваться вместе с Вами.

Статистика форума

Темы
410.585
Сообщения
469.153
Пользователи
86.312
Новый пользователь
Gremlin_SEM

Приложения форума для iOS и Android


У ркн там нет власти ;)
Приватные разговоры
Помощь Пользователи
    Вы не присоединились ни к одной комнате.