За последнюю неделю опубликовано 15 новых материалов.
Инструкция новичку Путеводитель по форуму Прокси для Telegram Показать подсказки , это бомба!

Скачать Кама Сутра: История любви / Kama Sutra: A Tale of Love (1996) BDRip 1080p | P бесплатно через торрент

  • Поучаствуй (в качестве покупателя) в любых пяти совместных покупках (кроме завершённых и "Моментальных") и получи группу "Новичок" навсегда -> ссылка на раздел
  • Получай до 480 рублей за каждого приглашенного пользователя!
    представляем Вам очередное расширение партнерской программы, подробности описаны тут -> ссылка
  • 90% материалов доступно к скачиванию после простой регистрации!
    Если же ты хочешь скачивать материалы без требования оставлять отзывы то получи группу "Новичок", 10 способов повышения описаны тут -> ссылка
  • К сожалению количество битых ссылок растет и мы уже не можем их оперативно восстанавливать поэтому просим помощи у каждого нашего пользователя.
    С сегодняшнего дня, за каждую восстановленную ссылку мы заплатим Вам.
    Подробнее тут -> ссылка
  • Перенесем твои заслуги с другого ресурса!
    Мы понимаем как сложно прокачивать аккаунты на форумах, вроде раскачал аккаунт, а тут появляется ресурс в 100 раз круче но тоже с системой прокачки и снова качать аккаунт...
    Предлагаем вам перенести Ваши заслуги на другом подобном ресурсе к нам.
    Подробности описаны тут -> ссылка
  • Вы можете получать по 2.5% с каждой покупки и продажи на маркете! Подробности в теме Партнёрская программа
Если Вы не хотите скачивать, Вы всегда можетепосмотретьонлайн, просто нажмите кнопку ниже :

Открыть плеер

Torrent_Bot

Торрент-Бот
Бот форума
4 Окт 2016
122
116
20



Информация о фильме
Название: Кама Сутра: История любви
Оригинальное название: Kama Sutra: A Tale of Love
Год выхода: 1996
Жанр: Драма, мелодрама, криминал, история
Режиссер: Мира Наир
В ролях: Рекха, Навин Эндрюс, Сарита Чоудхури, Рамон Тикарам, Индира Варма, Перл Падамси, Хариш Патель, Ранджит Чоудри, Ачала Сачдев, Зоя Акхтар, Химаншу Малик, Арундати Рао, Сурабхи Бхансали, Гарима Дхуп

О фильме:
Кама Сутра - история любви. Индия, XVI-й век. Маленькая девочка Майя, дочь танцовщицы, живет при дворце магараджи. Ей разрешают донашивать старую одежду принцессы Тары, посещать уроки танцев и слушать лекции о любви по древней книге Кама Сутра. Проходят годы, и девочки становятся прелестными девушками, за принцессу Тару сватается прекрасный принц Радж Сингх. Но под жарким солнцем Индии любовь не признает сословных различий. У одной соперницы есть титул и власть, а у другой лишь красота и непревзойденное искусство обольщения. Чем закончится этот изысканный и жестокий поединок?



Страна: США, Индия, Великобритания, Япония, Германия
Студия: Channel Four Films, Mirabai Films, NDF International
Продолжительность: 01:51:07
Перевод: Профессиональный многоголосый

Файл
Кодек: x.264
Качество: BDRip 1080p | Kama.Sutra-A.Tale.of.Love.1996.1080p.BluRay.x264.DTS-FGT
Видео: MPEG-4 AVC, 11.5 Mбит/с, 1920x1080, 24.000 кадр/с
Аудио #1: Русский (АС3, 6 ch, 448 Кбит/с, 48.0 KHz) Профессиональный (многоголосый, закадровый)
Аудио #2: Английский (DTS, 2 ch, 510 Кбит/с, 48.0 KHz)
Субтитры: Английские
MediaInfo
Источник: Kama.Sutra-A.Tale.of.Love.1996.1080p.BluRay.x264.DTS-FGT
General
Unique ID : 180373823915157029736944051276128187066 (0x87B2BC2030AF8B5C93DC45E06FFFF2BA)
Complete name : Kama.Sutra-A.Tale.of.Love.1996.BDRip.1080p.mkv
Format : Matroska
Format version : Version 4
File size : 9.67 GiB
Duration : 1 h 51 min
Overall bit rate : 12.5 Mb/s
Movie name : Kama.Sutra-A.Tale.of.Love.1996.1080p.BluRay.x264.DTS-FGT
Encoded date : UTC 2019-11-22 17:40:36
Writing application : mkvmerge v7.1.0 ('Good Love') 64bit built on Jul 27 2014 13:06:55
Writing library : libebml v1.3.0 + libmatroska v1.4.1

Video
ID : 1
Format : AVC
Format/Info : Advanced Video Codec
Format profile : [email protected]
Format settings : CABAC / 4 Ref Frames
Format settings, CABAC : Yes
Format settings, Reference fra : 4 frames
Codec ID : V_MPEG4/ISO/AVC
Duration : 1 h 51 min
Bit rate : 11.5 Mb/s
Width : 1 920 pixels
Height : 1 080 pixels
Display aspect ratio : 16:9
Frame rate mode : Constant
Frame rate : 24.000 FPS
Color space : YUV
Chroma subsampling : 4:2:0
Bit depth : 8 bits
Scan type : Progressive
Bits/(Pixel*Frame) : 0.231
Stream size : 8.92 GiB (92%)
Writing library : x264 core 148 r2748 97eaef2
Encoding settings : cabac=1 / ref=4 / deblock=1:-2:-2 / analyse=0x3:0x113 / me=umh / subme=9 / psy=1 / psy_rd=1.00:0.15 / mixed_ref=1 / me_range=16 / chroma_me=1 / trellis=2 / 8x8dct=1 / cqm=0 / deadzone=21,11 / fast_pskip=1 / chroma_qp_offset=-3 / threads=24 / lookahead_threads=3 / sliced_threads=0 / nr=0 / decimate=1 / interlaced=0 / bluray_compat=0 / constrained_intra=0 / bframes=3 / b_pyramid=2 / b_adapt=1 / b_bias=0 / direct=3 / weightb=1 / open_gop=0 / weightp=2 / keyint=250 / keyint_min=25 / scenecut=40 / intra_refresh=0 / rc_lookahead=50 / rc=2pass / mbtree=1 / bitrate=11500 / ratetol=1.0 / qcomp=0.60 / qpmin=0 / qpmax=69 / qpstep=4 / cplxblur=20.0 / qblur=0.5 / vbv_maxrate=31250 / vbv_bufsize=31250 / nal_hrd=none / filler=0 / ip_ratio=1.40 / aq=1:1.00
Language : English
Default : Yes
Forced : No

Audio #1
ID : 2
Format : AC-3
Format/Info : Audio Coding 3
Commercial name : Dolby Digital
Codec ID : A_AC3
Duration : 1 h 51 min
Bit rate mode : Constant
Bit rate : 448 kb/s
Channel(s) : 6 channels
Channel layout : L R C LFE Ls Rs
Sampling rate : 48.0 kHz
Frame rate : 31.250 FPS (1536 SPF)
Compression mode : Lossy
Stream size : 356 MiB (4%)
Language : Russian
Service kind : Complete Main
Default : Yes
Forced : No

Audio #2
ID : 3
Format : DTS
Format/Info : Digital Theater Systems
Codec ID : A_DTS
Duration : 1 h 51 min
Bit rate mode : Constant
Bit rate : 510 kb/s
Channel(s) : 2 channels
Channel layout : L R
Sampling rate : 48.0 kHz
Frame rate : 93.750 FPS (512 SPF)
Bit depth : 16 bits
Compression mode : Lossy
Stream size : 405 MiB (4%)
Language : English
Default : No
Forced : No

Text
ID : 4
Format : UTF-8
Codec ID : S_TEXT/UTF8
Codec ID/Info : UTF-8 Plain Text
Duration : 1 h 44 min
Bit rate : 27 b/s
Count of elements : 752
Stream size : 21.2 KiB (0%)
Language : English
Default : No
Forced : No

Menu
00:00:00.000 : en:Chapter 01
00:02:47.167 : en:Chapter 02
00:05:21.583 : en:Chapter 03
00:08:32.083 : en:Chapter 04
00:11:41.708 : en:Chapter 05
00:14:17.417 : en:Chapter 06
00:16:17.500 : en:Chapter 07
00:20:40.125 : en:Chapter 08
00:23:29.667 : en:Chapter 09
00:27:13.667 : en:Chapter 10
00:32:27.958 : en:Chapter 11
00:33:54.917 : en:Chapter 12
00:35:57.833 : en:Chapter 13
00:38:26.333 : en:Chapter 14
00:42:16.458 : en:Chapter 15
00:45:19.458 : en:Chapter 16
00:48:55.625 : en:Chapter 17
00:51:40.625 : en:Chapter 18
00:54:21.375 : en:Chapter 19
00:57:12.625 : en:Chapter 20
00:58:54.458 : en:Chapter 21
01:01:57.542 : en:Chapter 22
01:05:12.750 : en:Chapter 23
01:06:49.667 : en:Chapter 24
01:11:31.667 : en:Chapter 25
01:13:34.250 : en:Chapter 26
01:18:13.958 : en:Chapter 27
01:19:47.042 : en:Chapter 28
01:23:32.042 : en:Chapter 29
01:28:16.667 : en:Chapter 30
01:32:18.833 : en:Chapter 31
01:35:48.167 : en:Chapter 32
01:39:35.667 : en:Chapter 33
01:42:08.750 : en:Chapter 34
01:45:21.833 : en:Chapter 35
01:46:58.458 : en:Chapter 36
Скриншоты
 

Вложения

  • 25,1 KB Просмотры: 0
    Личеров 0
    Сидеров 0
    Файлов 1
    Объем 9,7 GB

Привет!

Мы группа людей которые решили помочь другим в решении их проблем, а так же пользователям с поиском самых свежих и качественных инфопродуктов. За 4 с небольшим месяца мы создали этот форум на который заходят ежедневно тысячи человек и посещаемость постоянно растёт. Мы создали панель лицензирования для защиты PHP скриптов от воровства и SEO панель для мониторинга наших сайтов и выбора верной стратегии их развития. Мы надеемся что то что мы создали пригодится Вам и возможно Вы поможете нам развиваться и совершенствоваться вместе с Вами.

Статистика форума

Темы
385.073
Сообщения
430.568
Пользователи
63.379
Новый пользователь
Anele

Приложения форума для iOS и Android


У ркн там нет власти ;)
Приватные разговоры
Помощь Пользователи
    Вы не присоединились ни к одной комнате.