За последнюю неделю опубликовано 28 новых материалов.
Инструкция новичку Путеводитель по форуму Прокси для Telegram Показать подсказки , это бомба!

Скачать Как стать принцессой / The Princess Diaries (2001) DVDRip-AVC | D | Fullscreen бесплатно через торрент

  • Поучаствуй (в качестве покупателя) в любых пяти совместных покупках (кроме завершённых и "Моментальных") и получи группу "Новичок" навсегда -> ссылка на раздел
  • Получай до 480 рублей за каждого приглашенного пользователя!
    представляем Вам очередное расширение партнерской программы, подробности описаны тут -> ссылка
  • 90% материалов доступно к скачиванию после простой регистрации!
    Если же ты хочешь скачивать материалы без требования оставлять отзывы то получи группу "Новичок", 10 способов повышения описаны тут -> ссылка
  • К сожалению количество битых ссылок растет и мы уже не можем их оперативно восстанавливать поэтому просим помощи у каждого нашего пользователя.
    С сегодняшнего дня, за каждую восстановленную ссылку мы заплатим Вам.
    Подробнее тут -> ссылка
  • Перенесем твои заслуги с другого ресурса!
    Мы понимаем как сложно прокачивать аккаунты на форумах, вроде раскачал аккаунт, а тут появляется ресурс в 100 раз круче но тоже с системой прокачки и снова качать аккаунт...
    Предлагаем вам перенести Ваши заслуги на другом подобном ресурсе к нам.
    Подробности описаны тут -> ссылка
  • Вы можете получать по 2.5% с каждой покупки и продажи на маркете! Подробности в теме Партнёрская программа
Если Вы не хотите скачивать, Вы всегда можетепосмотретьонлайн, просто нажмите кнопку ниже :

Открыть плеер

Torrent_Bot

Торрент-Бот
Бот форума
4 Окт 2016
93
160
20



Название: Как стать принцессой
Оригинальное название: The Princess Diaries
Год выхода: 2001
Жанр: драма, комедия, семейный
Режиссер: Гэрри Маршалл
В ролях: Энн Хэтэуэй, Джули Эндрюс, Гектор Элизондо, Хезер Матараццо, Мэнди Мур, Кэролайн Гудолл, Роберт Шварцман, Эрик Фон Деттен, Патрик Флюгер, Шон О`Брайан

О фильме:
Пятнадцатилетняя Миа живет в Сан-Франциско и ведет обычную для американского подростка жизнь. Но умирает ее отец, и Миа узнает, что он был принцем одной европейской страны, а она теперь единственная наследница трона. Ее бабушка, королева, прибывает в Калифорнию, чтобы сообщить Мии о ее происхождении и выяснять, примет ли она трон. Она хочет сделать из Мии настоящую принцессу, научив этикету и манерам. К своему шестнадцатому дню рождения девушка должна решить, отправиться ли ей в Европу, чтобы управлять страной, или остаться с матерью в Сан-Франциско, ведя обычную жизнь американского подростка.



Страна: США
Продолжительность: 01:55:29
Перевод: Профессиональный (полное дублирование)

Формат: MKV
Качество: DVDRip-AVC
Видео: AVC/H.264, 720x480(4:3)@720x540, 23.976 fps, ~2549 Kbps
Аудио 1: AC3, 6 ch, 384 kbps - Русский (DUB)
Аудио 2: AC3, 6 ch, 448 kbps - Английский
Субтитры: русские, английские

MediaInfo
General
Unique ID : 79681027195219021941629277384810592304 (0x3BF201F3DFE3BA2CB807D0F84B867830)
Complete name : D:uTorrentUploadThe Princess Diaries (2001) DVDRip-AVC Full Screen.mkv
Format : Matroska
Format version : Version 4
File size : 2.73 GiB
Duration : 1 h 55 min
Overall bit rate : 3 383 kb/s
Encoded date : UTC 2020-08-20 09:12:08
Writing application : mkvmerge v37.0.0 ('Leave It') 64-bit
Writing library : libebml v1.3.9 + libmatroska v1.5.2

Video
ID : 1
Format : AVC
Format/Info : Advanced Video Codec
Format profile : [email protected]
Format settings : CABAC / 12 Ref Frames
Format settings, CABAC : Yes
Format settings, Reference frames : 12 frames
Codec ID : V_MPEG4/ISO/AVC
Duration : 1 h 55 min
Bit rate : 2 549 kb/s
Width : 720 pixels
Height : 480 pixels
Display aspect ratio : 4:3
Frame rate mode : Constant
Frame rate : 23.976 (24000/1001) FPS
Color space : YUV
Chroma subsampling : 4:2:0
Bit depth : 8 bits
Scan type : Progressive
Bits/(Pixel*Frame) : 0.308
Stream size : 2.06 GiB (75%)
Writing library : x264 core 161 r3018 db0d417
Encoding settings : cabac=1 / ref=12 / deblock=1:-2:-1 / analyse=0x3:0x113 / me=umh / subme=11 / psy=1 / psy_rd=1.00:0.08 / mixed_ref=1 / me_range=32 / chroma_me=1 / trellis=2 / 8x8dct=1 / cqm=0 / deadzone=21,11 / fast_pskip=0 / chroma_qp_offset=-3 / threads=6 / lookahead_threads=1 / sliced_threads=0 / nr=0 / decimate=1 / interlaced=0 / bluray_compat=0 / constrained_intra=0 / bframes=9 / b_pyramid=2 / b_adapt=2 / b_bias=0 / direct=1 / weightb=1 / open_gop=0 / weightp=2 / keyint=240 / keyint_min=23 / scenecut=40 / intra_refresh=0 / rc_lookahead=60 / rc=crf / mbtree=0 / crf=16.7 / qcomp=0.62 / qpmin=0 / qpmax=69 / qpstep=4 / vbv_maxrate=50000 / vbv_bufsize=62500 / crf_max=0.0 / nal_hrd=none / filler=0 / ip_ratio=1.40 / pb_ratio=1.30 / aq=3:0.85
Default : Yes
Forced : No

Audio #1
ID : 2
Format : AC-3
Format/Info : Audio Coding 3
Commercial name : Dolby Digital
Codec ID : A_AC3
Duration : 1 h 55 min
Bit rate mode : Constant
Bit rate : 384 kb/s
Channel(s) : 6 channels
Channel layout : L R C LFE Ls Rs
Sampling rate : 48.0 kHz
Frame rate : 31.250 FPS (1536 SPF)
Compression mode : Lossy
Stream size : 317 MiB (11%)
Language : Russian
Service kind : Complete Main
Default : Yes
Forced : No

Audio #2
ID : 3
Format : AC-3
Format/Info : Audio Coding 3
Commercial name : Dolby Digital
Codec ID : A_AC3
Duration : 1 h 55 min
Bit rate mode : Constant
Bit rate : 448 kb/s
Channel(s) : 6 channels
Channel layout : L R C LFE Ls Rs
Sampling rate : 48.0 kHz
Frame rate : 31.250 FPS (1536 SPF)
Compression mode : Lossy
Stream size : 370 MiB (13%)
Language : English
Service kind : Complete Main
Default : No
Forced : No

Text #1
ID : 4
Format : UTF-8
Codec ID : S_TEXT/UTF8
Codec ID/Info : UTF-8 Plain Text
Duration : 1 h 49 min
Bit rate : 107 b/s
Count of elements : 1375
Stream size : 86.6 KiB (0%)
Title : Full
Language : Russian
Default : No
Forced : No

Text #2
ID : 5
Format : UTF-8
Codec ID : S_TEXT/UTF8
Codec ID/Info : UTF-8 Plain Text
Duration : 1 h 52 min
Bit rate : 74 b/s
Count of elements : 1650
Stream size : 61.8 KiB (0%)
Title : Full, SDH
Language : English
Default : No
Forced : No

Menu
00:00:00.000 : en:Opening Titles / Time for School
00:03:50.064 : en:Invisible Girl
00:08:41.655 : en:"Catch a Falling Star"
00:10:07.908 : en:Tea With Grandmother
00:16:15.776 : en:Compromise
00:21:57.618 : en:"You Can Call Me Joe"
00:24:39.114 : en:Garage Band
00:28:09.891 : en:princess Lessons
00:31:32.661 : en:Soccer Practice
00:32:21.144 : en:Backseat Dressing Room
00:33:21.471 : en:Dance Lesson
00:36:07.471 : en:Mia's Transformation
00:40:17.888 : en:Friends Tell
00:45:34.906 : en:Waving Lesson
00:47:13.072 : en:Identity Revealed
00:53:31.984 : en:The State Dinner
00:59:12.492 : en:Tour of San Francisco
01:06:49.316 : en:A Change in Plans
01:11:03.304 : en:Baker Beach Bash
01:17:59.688 : en:A Picture is Worth a Thousand Words
01:23:52.074 : en:Royally Flushed
01:29:13.495 : en:A Gift from Your Father
01:32:58.521 : en:Courage
01:35:31.707 : en:Independence Ball
01:40:37.114 : en:princess of Genovia
01:45:37.148 : en:Foot-Popping
01:49:34.186 : en:Welcome to Genovia / End Credits
Сравнения:


Скриншоты

 

Вложения

  • 14,6 KB Просмотры: 0
    Личеров 0
    Сидеров 0
    Файлов 1
    Объем 2,7 GB

Привет!

Мы группа людей которые решили помочь другим в решении их проблем, а так же пользователям с поиском самых свежих и качественных инфопродуктов. За 4 с небольшим месяца мы создали этот форум на который заходят ежедневно тысячи человек и посещаемость постоянно растёт. Мы создали панель лицензирования для защиты PHP скриптов от воровства и SEO панель для мониторинга наших сайтов и выбора верной стратегии их развития. Мы надеемся что то что мы создали пригодится Вам и возможно Вы поможете нам развиваться и совершенствоваться вместе с Вами.

Статистика форума

Темы
406.613
Сообщения
465.071
Пользователи
84.480
Новый пользователь
Надя 362469

Приложения форума для iOS и Android


У ркн там нет власти ;)
Приватные разговоры
Помощь Пользователи
    Вы не присоединились ни к одной комнате.