За последнюю неделю опубликовано 63 новых материалов.
Инструкция новичку Путеводитель по форуму Прокси для Telegram Показать подсказки , это бомба!

Скачать Как малые дети / Little Children (2006) DVDRip-AVC | D | Fullscreen бесплатно через торрент

  • Поучаствуй (в качестве покупателя) в любых пяти совместных покупках (кроме завершённых и "Моментальных") и получи группу "Новичок" навсегда -> ссылка на раздел
  • Получай до 480 рублей за каждого приглашенного пользователя!
    представляем Вам очередное расширение партнерской программы, подробности описаны тут -> ссылка
  • 90% материалов доступно к скачиванию после простой регистрации!
    Если же ты хочешь скачивать материалы без требования оставлять отзывы то получи группу "Новичок", 10 способов повышения описаны тут -> ссылка
  • К сожалению количество битых ссылок растет и мы уже не можем их оперативно восстанавливать поэтому просим помощи у каждого нашего пользователя.
    С сегодняшнего дня, за каждую восстановленную ссылку мы заплатим Вам.
    Подробнее тут -> ссылка
  • Перенесем твои заслуги с другого ресурса!
    Мы понимаем как сложно прокачивать аккаунты на форумах, вроде раскачал аккаунт, а тут появляется ресурс в 100 раз круче но тоже с системой прокачки и снова качать аккаунт...
    Предлагаем вам перенести Ваши заслуги на другом подобном ресурсе к нам.
    Подробности описаны тут -> ссылка
  • Вы можете получать по 2.5% с каждой покупки и продажи на маркете! Подробности в теме Партнёрская программа
Если Вы не хотите скачивать, Вы всегда можетепосмотретьонлайн, просто нажмите кнопку ниже :

Открыть плеер

Torrent_Bot

Торрент-Бот
Бот форума
4 Окт 2016
92
160
20



Название: Как малые дети
Оригинальное название: Little Children
Год выхода: 2006
Жанр: драма, мелодрама
Режиссер: Тодд Филд
В ролях: Кейт Уинслет, Патрик Уилсон, Дженнифер Коннелли, Джеки Эрл Хэйли, Ноа Эммерих, Филлис Соммервиль, Рэймонд Дж. Барри, Трини Альварадо, Мэри Б. МакКэн, Марша Дитлейн, Хелен Кэри, Сара Бакстон, Джейн Адамс, Грегг Эделман, Мира Терли, Уилл Лиман

О фильме:
Идеальный американский пригород, идеальные американские семьи. Дети играют на своих площадках, взрослые, уютно устроившись в тени, наблюдают. Все освещено счастливыми белозубыми улыбками. Но так ли все идеально? Домохозяка изнывает от скуки и ханжества окружающих, а ее мужу нет до нее дела, молодой отец заброшен своей женой, ушедшей в карьеру. Конечно же, когда эти двое встречаются, они начинают играть в роман. А неподалеку бродит извращенец-педофил.



Страна: США
Продолжительность: 02:16:45
Перевод: Профессиональный (полное дублирование)

Формат: MKV
Качество: DVDRip-AVC
Видео: AVC/H.264, 720x480(4:3)@720x540, 23.976 fps, ~1305 Kbps
Аудио: AC3, 2 ch, 192 kbps - Русский (DUB)
Субтитры: русские, английские

MediaInfo
General
Unique ID : 116265628519520049625673400626179791241 (0x5777F20F5C275BDA8797E730E2BCD989)
Complete name : D:Как малые дети.2006.DVDRip.mkv
Format : Matroska
Format version : Version 4
File size : 1.43 GiB
Duration : 2 h 16 min
Overall bit rate : 1 499 kb/s
Movie name : Как малые дети / Little Children / 2006 / DVDRip / Fullscreen
Encoded date : UTC 2019-08-24 16:53:11
Writing application : mkvmerge v37.0.0 ('Leave It') 32-bit
Writing library : libebml v1.3.9 + libmatroska v1.5.2

Video
ID : 1
Format : AVC
Format/Info : Advanced Video Codec
Format profile : [email protected]
Format settings : CABAC / 16 Ref Frames
Format settings, CABAC : Yes
Format settings, Reference : 16 frames
Codec ID : V_MPEG4/ISO/AVC
Duration : 2 h 16 min
Bit rate : 1 305 kb/s
Width : 720 pixels
Height : 480 pixels
Display aspect ratio : 4:3
Frame rate mode : Constant
Frame rate : 23.976 (24000/1001) FPS
Color space : YUV
Chroma subsampling : 4:2:0
Bit depth : 8 bits
Scan type : Progressive
Bits/(Pixel*Frame) : 0.157
Stream size : 1.25 GiB (87%)
Title : Как малые дети / Little Children / 2006 / DVDRip / Fullscreen
Writing library : x264 core 158 r2984 3759fcb
Encoding settings : cabac=1 / ref=16 / deblock=1:-3:-2 / analyse=0x3:0x133 / me=umh / subme=11 / psy=1 / psy_rd=1.00:0.30 / mixed_ref=1 / me_range=42 / chroma_me=0 / trellis=2 / 8x8dct=1 / cqm=0 / deadzone=21,11 / fast_pskip=0 / chroma_qp_offset=-4 / threads=6 / lookahead_threads=1 / sliced_threads=0 / nr=0 / decimate=0 / interlaced=0 / bluray_compat=0 / constrained_intra=0 / bframes=16 / b_pyramid=2 / b_adapt=2 / b_bias=0 / direct=3 / weightb=1 / open_gop=0 / weightp=2 / keyint=240 / keyint_min=24 / scenecut=40 / intra_refresh=0 / rc_lookahead=60 / rc=crf / mbtree=1 / crf=19.7 / qcomp=0.60 / qpmin=0 / qpmax=69 / qpstep=4 / ip_ratio=1.40 / aq=3:1.00
Language : English
Default : Yes
Forced : No

Audio
ID : 2
Format : AC-3
Format/Info : Audio Coding 3
Commercial name : Dolby Digital
Codec ID : A_AC3
Duration : 2 h 16 min
Bit rate mode : Constant
Bit rate : 192 kb/s
Channel(s) : 2 channels
Channel layout : L R
Sampling rate : 48.0 kHz
Frame rate : 31.250 FPS (1536 SPF)
Bit depth : 16 bits
Compression mode : Lossy
Stream size : 188 MiB (13%)
Title : дубляж
Language : Russian
Service kind : Complete Main
Default : Yes
Forced : No

Text #1
ID : 3
Format : UTF-8
Codec ID : S_TEXT/UTF8
Codec ID/Info : UTF-8 Plain Text
Duration : 2 h 16 min
Bit rate : 95 b/s
Count of elements : 1796
Stream size : 95.3 KiB (0%)
Title : полные
Language : Russian
Default : No
Forced : No

Text #2
ID : 4
Format : UTF-8
Codec ID : S_TEXT/UTF8
Codec ID/Info : UTF-8 Plain Text
Duration : 2 h 9 min
Bit rate : 58 b/s
Count of elements : 1781
Stream size : 55.6 KiB (0%)
Title : оригинал
Language : English
Default : No
Forced : No

Menu
00:00:00.000 : en:Chapter 01
00:02:37.457 : en:Chapter 02
00:07:00.319 : en:Chapter 03
00:09:49.055 : en:Chapter 04
00:17:22.775 : en:Chapter 05
00:20:26.258 : en:Chapter 06
00:26:14.573 : en:Chapter 07
00:27:25.710 : en:Chapter 08
00:32:19.370 : en:Chapter 09
00:35:10.708 : en:Chapter 10
00:43:20.864 : en:Chapter 11
00:44:51.088 : en:Chapter 12
00:50:41.571 : en:Chapter 13
00:55:32.629 : en:Chapter 14
00:59:56.793 : en:Chapter 15
01:02:05.621 : en:Chapter 16
01:08:06.082 : en:Chapter 17
01:11:46.435 : en:Chapter 18
01:13:59.601 : en:Chapter 19
01:18:38.947 : en:Chapter 20
01:23:44.753 : en:Chapter 21
01:25:38.399 : en:Chapter 22
01:31:47.101 : en:Chapter 23
01:36:49.870 : en:Chapter 24
01:40:20.681 : en:Chapter 25
01:44:43.977 : en:Chapter 26
01:47:01.047 : en:Chapter 27
01:50:01.494 : en:Chapter 28
01:54:55.588 : en:Chapter 29
01:57:36.949 : en:Chapter 30
02:07:11.256 : en:Chapter 31
02:10:38.163 : en:Chapter 32
Сравнения:


Скриншоты


 

Вложения

  • 15,2 KB Просмотры: 0
    Личеров 0
    Сидеров 0
    Файлов 1
    Объем 1,4 GB

Привет!

Мы группа людей которые решили помочь другим в решении их проблем, а так же пользователям с поиском самых свежих и качественных инфопродуктов. За 4 с небольшим месяца мы создали этот форум на который заходят ежедневно тысячи человек и посещаемость постоянно растёт. Мы создали панель лицензирования для защиты PHP скриптов от воровства и SEO панель для мониторинга наших сайтов и выбора верной стратегии их развития. Мы надеемся что то что мы создали пригодится Вам и возможно Вы поможете нам развиваться и совершенствоваться вместе с Вами.

Статистика форума

Темы
406.656
Сообщения
465.106
Пользователи
84.674
Новый пользователь
Юрий 1990

Приложения форума для iOS и Android


У ркн там нет власти ;)
Приватные разговоры
Помощь Пользователи
    Вы не присоединились ни к одной комнате.