За последнюю неделю опубликовано 30 новых материалов.
Инструкция новичку Путеводитель по форуму Прокси для Telegram Показать подсказки , это бомба!

Скачать Кафедра (1982) SATRip-AVC от KORSAR бесплатно через торрент

  • Поучаствуй (в качестве покупателя) в любых пяти совместных покупках (кроме завершённых и "Моментальных") и получи группу "Новичок" навсегда -> ссылка на раздел
  • Получай до 480 рублей за каждого приглашенного пользователя!
    представляем Вам очередное расширение партнерской программы, подробности описаны тут -> ссылка
  • 90% материалов доступно к скачиванию после простой регистрации!
    Если же ты хочешь скачивать материалы без требования оставлять отзывы то получи группу "Новичок", 10 способов повышения описаны тут -> ссылка
  • К сожалению количество битых ссылок растет и мы уже не можем их оперативно восстанавливать поэтому просим помощи у каждого нашего пользователя.
    С сегодняшнего дня, за каждую восстановленную ссылку мы заплатим Вам.
    Подробнее тут -> ссылка
  • Перенесем твои заслуги с другого ресурса!
    Мы понимаем как сложно прокачивать аккаунты на форумах, вроде раскачал аккаунт, а тут появляется ресурс в 100 раз круче но тоже с системой прокачки и снова качать аккаунт...
    Предлагаем вам перенести Ваши заслуги на другом подобном ресурсе к нам.
    Подробности описаны тут -> ссылка
  • Вы можете получать по 2.5% с каждой покупки и продажи на маркете! Подробности в теме Партнёрская программа
Если Вы не хотите скачивать, Вы всегда можетепосмотретьонлайн, просто нажмите кнопку ниже :

Открыть плеер

Torrent_Bot

Торрент-Бот
Бот форума
4 Окт 2016
93
160
20


Кафедра
Жанр: драма
Год выпуска: 1982
Режиссер: Иван Киасашвили
В ролях: Андрей Попов, Светлана Кузьмина, Ростислав Янковский, Галина Макарова, Елена Степанова, Игорь Ясулович, Елена Антоненко, Александр Кайдановский, Виктор Сергачёв, Виктор Штернберг, Людмила Аринина, Александр Вокач, Леонид Ярмольник, Владимир Светлов, Николай Никольский, Галина Золотарева, Татьяна Хорошевцева, Владимир Земляникин, Юрий Вутто

О фильме:
Профессор Завалишин, известный ученый, заведующий кафедрой института, однажды начинает понимать, что в преклонном возрасте уже ничего нового привнести в науку не может. Он все более отходит от научной работы. Личные переживания, связанные с кончиной любимой жены, заставляют его оставить и преподавательскую работу. После смерти Завалишина на его место назначается профессор Флягин. Новый заведующий искренне хочет улучшить работу кафедры.



Страна: СССР
Производство: Беларусьфильм
Продолжительность: 01:07:29 + 01:06:53
Перевод: Не требуется

Файл
Формат: MKV
Качество: SATRip-AVC
Видео: MPEG-4 AVC, [email protected], 25 fps, 2321 + 2448 Кбит/с
Аудио: Русский, MPEG Audio, 2 ch, 256 Кбит/с
Cубтитры: нет
Навигация по главам: нет

Mediainfo
x264 [info]: frame I:484 Avg QP:17.80 size: 52357
x264 [info]: frame P:21970 Avg QP:19.50 size: 26417
x264 [info]: frame B:78773 Avg QP:21.16 size: 7222
x264 [info]: consecutive B-frames: 1.3% 2.5% 8.6% 18.3% 23.8% 40.3% 4.1% 0.6% 0.2% 0.2% 0.0%

General
Unique ID : 231789129258133478559794445126387206084 (0xAE60F6653B3BC28E7FEF8E8506F587C4)
Complete name : S:FILMSКафедра (1982) SATRip-AVC - KORSARКафедра 1серия (1982) SATRip-AVC - KORSAR.mkv
Format : Matroska
Format version : Version 4 / Version 2
File size : 1.22 GiB
Duration : 1 h 7 min
Overall bit rate : 2 579 kb/s
Movie name : Кафедра 1серия (1982)_rip_by_Cthulhu
Encoded date : UTC 2020-04-02 22:35:35
Writing application : mkvmerge v37.0.0 ('Leave It') 64-bit
Writing library : libebml v1.3.9 + libmatroska v1.5.2
Cover : Yes
Attachments : cover5.jpg

Video
ID : 1
Format : AVC
Format/Info : Advanced Video Codec
Format profile : [email protected]
Format settings : CABAC / 15 Ref Frames
Format settings, CABAC : Yes
Format settings, ReFrames : 15 frames
Codec ID : V_MPEG4/ISO/AVC
Duration : 1 h 7 min
Bit rate : 2 321 kb/s
Width : 532 pixels
Height : 572 pixels
Display aspect ratio : 4:3
Frame rate mode : Constant
Frame rate : 25.000 FPS
Color space : YUV
Chroma subsampling : 4:2:0
Bit depth : 8 bits
Scan type : Progressive
Bits/(Pixel*Frame) : 0.305
Stream size : 1.09 GiB (90%)
Writing library : x264 core 152 r2851kMod ba24899
Encoding settings : cabac=1 / ref=15 / deblock=1:-1:-1 / analyse=0x3:0x133 / me=umh / subme=11 / psy=1 / fade_compensate=0.00 / psy_rd=1.01:0.05 / mixed_ref=1 / me_range=48 / chroma_me=1 / trellis=2 / 8x8dct=1 / cqm=0 / deadzone=21,11 / fast_pskip=0 / chroma_qp_offset=-3 / threads=18 / lookahead_threads=4 / sliced_threads=0 / nr=0 / decimate=1 / interlaced=0 / bluray_compat=0 / constrained_intra=0 / bframes=10 / b_pyramid=2 / b_adapt=2 / b_bias=0 / direct=3 / weightb=1 / open_gop=0 / weightp=2 / keyint=250 / keyint_min=25 / scenecut=40 / intra_refresh=0 / rc_lookahead=60 / rc=crf / mbtree=0 / crf=18.0000 / qcomp=0.60 / qpmin=0 / qpmax=39 / qpstep=4 / vbv_maxrate=50000 / vbv_bufsize=62500 / crf_max=0.0 / nal_hrd=none / filler=0 / ip_ratio=1.40 / pb_ratio=1.30 / aq=3:0.80
Language : Russian
Default : Yes
Forced : No
Color range : Limited
Color primaries : BT.601 PAL
Transfer characteristics : BT.470 System B/G
Matrix coefficients : BT.470 System B/G

Audio
ID : 2
Format : MPEG Audio
Format version : Version 1
Format profile : Layer 2
Codec ID : A_MPEG/L2
Codec ID/Hint : MP2
Duration : 1 h 7 min
Bit rate mode : Constant
Bit rate : 256 kb/s
Channel(s) : 2 channels
Sampling rate : 48.0 kHz
Frame rate : 41.667 FPS (1152 SPF)
Compression mode : Lossy
Delay relative to video : 253 ms
Stream size : 124 MiB (10%)
Language : Russian
Default : Yes
Forced : No
Скриншоты

Релиз от: Cthulhu
 

Вложения

  • 13,6 KB Просмотры: 0
    Личеров 0
    Сидеров 0
    Файлов 2
    Объем 2,5 GB

Привет!

Мы группа людей которые решили помочь другим в решении их проблем, а так же пользователям с поиском самых свежих и качественных инфопродуктов. За 4 с небольшим месяца мы создали этот форум на который заходят ежедневно тысячи человек и посещаемость постоянно растёт. Мы создали панель лицензирования для защиты PHP скриптов от воровства и SEO панель для мониторинга наших сайтов и выбора верной стратегии их развития. Мы надеемся что то что мы создали пригодится Вам и возможно Вы поможете нам развиваться и совершенствоваться вместе с Вами.

Статистика форума

Темы
406.605
Сообщения
465.028
Пользователи
84.389
Новый пользователь
xakki

Приложения форума для iOS и Android


У ркн там нет власти ;)
Приватные разговоры
Помощь Пользователи
    Вы не присоединились ни к одной комнате.