За последнюю неделю опубликовано 46 новых материалов.
Инструкция новичку Путеводитель по форуму Прокси для Telegram Показать подсказки , это бомба!

Скачать Ёлки 3 (2013) BDRip 720p от New-Team бесплатно через торрент

  • Поучаствуй (в качестве покупателя) в любых пяти совместных покупках (кроме завершённых и "Моментальных") и получи группу "Новичок" навсегда -> ссылка на раздел
  • Получай до 480 рублей за каждого приглашенного пользователя!
    представляем Вам очередное расширение партнерской программы, подробности описаны тут -> ссылка
  • 90% материалов доступно к скачиванию после простой регистрации!
    Если же ты хочешь скачивать материалы без требования оставлять отзывы то получи группу "Новичок", 10 способов повышения описаны тут -> ссылка
  • К сожалению количество битых ссылок растет и мы уже не можем их оперативно восстанавливать поэтому просим помощи у каждого нашего пользователя.
    С сегодняшнего дня, за каждую восстановленную ссылку мы заплатим Вам.
    Подробнее тут -> ссылка
  • Перенесем твои заслуги с другого ресурса!
    Мы понимаем как сложно прокачивать аккаунты на форумах, вроде раскачал аккаунт, а тут появляется ресурс в 100 раз круче но тоже с системой прокачки и снова качать аккаунт...
    Предлагаем вам перенести Ваши заслуги на другом подобном ресурсе к нам.
    Подробности описаны тут -> ссылка
  • Вы можете получать по 2.5% с каждой покупки и продажи на маркете! Подробности в теме Партнёрская программа
Если Вы не хотите скачивать, Вы всегда можетепосмотретьонлайн, просто нажмите кнопку ниже :

Открыть плеер

Torrent_Bot

Торрент-Бот
Бот форума
4 Окт 2016
91
163
20
Страна: Россия
Жанр: семейный, комедия

Год выпуска: 2013

Продолжительность: 01:36:56


Перевод: Не требуется

Режиссер: Ольга Харина, Дмитрий Киселёв, Александр Котт

В ролях:
10a681039e639f0ab4692a90a8e99035.jpg862dbc6010970b7a5ac82176e9f3014a.jpg727a8ff969dfd7f7a4a46c0150feb9bd.jpg9cabc2077c49d38903e4580e8518251a.jpg4c51eec11c43b19df68ef06049009496.jpgb1ec03f48d89c7dc605751119525c9e7.jpg3a080e81de3462006b45f7efa8b6690c.jpg089848af4d5982ffb70163d6e002cddb.jpgee765ed914b9895de837df879802c7b9.jpg2e75a968c62cf8f4f8424140357ecf29.jpg388829ddf52e095844c10b829f4ca47f.jpgcefc47cdac02bfc20d22d167ae8893f4.jpg
Иван Ургант(Боря), Сергей Светлаков(Женя), Гоша Куценко(Андрей), Валентин Гафт(Николай Петрович), Татьяна Догилева(Марта Петровна), Пётр Фёдоров(Коля), Анна Чиповская(Лена), Мария Шукшина(Наташа), Константин Хабенский(рассказчик, озвучка), Антон Богданов(Денис), Мария Луговая(Маша), Александр Головин(сноубордист)


Описание: Спустя два года они снова с нами: любимые герои «Ёлок» в самых невероятных новогодних историях. Боря и Женя, чьи годовалые дети в канун праздника доведут друзей до психушки. Маленькая девочка Настя, чьи родители разлучат ее влюбленных друг в друга собак. Лыжник и сноубордист в самой экстремальной в их жизни гонке - от военкома. И профессор из Екатеринбурга Андрей, чья любвеобильность вновь не доведет его до добра, а только до проруби в минус 30.
Под бой курантов этих и новых героев «Ёлок» объединит бумеранг добра. Завершая свой круг, он заслуженно вернётся к каждому, кто его однажды запустил - кому улыбками и объятиями любимых и друзей, кому - праздничным настроением и соответствующим градусу состоянием, а кому-то... телефоном в холодце!





Качество: BDRip 720p
Контейнер: MKV
Исходник: BD
Видео: AVC, 1280x544 (2.40:1), 5700 kbps, 24.000 fps
Аудио: русский / AC3 / 5.1 / 48 kHz / 640 kbps / 16 bit ||
Навигация по главам: есть


Скриншоты
Media Info
General
Unique ID : 246936581999604891895697705182694711817 (0xB9C64179BBF81F3CBACCE5D745F3A209)
Complete name : D:BDElki.3.2013.BDRip.720p.[New-Team].mkv
Format : Matroska
Format version : Version 4 / Version 2
File size : 4.29 GiB
Duration : 1h 36mn
Overall bit rate : 6 339 Kbps
Encoded date : UTC 2014-01-30 04:18:42
Writing application : mkvmerge v6.7.0 ('Back to the Ground') 64bit built on Jan 8 2014 15:10:52
Writing library : libebml v1.3.0 + libmatroska v1.4.1
Attachment : Yes

Video
ID : 1
Format : AVC
Format/Info : Advanced Video Codec
Format profile : [email protected]
Format settings, CABAC : Yes
Format settings, ReFrames : 8 frames
Codec ID : V_MPEG4/ISO/AVC
Duration : 1h 36mn
Bit rate : 5 700 Kbps
Width : 1 280 pixels
Height : 544 pixels
Display aspect ratio : 2.35:1
Frame rate mode : Constant
Frame rate : 24.000 fps
Color space : YUV
Chroma subsampling : 4:2:0
Bit depth : 8 bits
Scan type : Progressive
Bits/(Pixel*Frame) : 0.341
Stream size : 3.77 GiB (88%)
Writing library : x264 core 132 r2310 76a5c3a
Encoding settings : cabac=1 / ref=8 / deblock=1:-3:-3 / analyse=0x3:0x113 / me=umh / subme=10 / psy=1 / psy_rd=1.00:0.15 / mixed_ref=1 / me_range=32 / chroma_me=1 / trellis=2 / 8x8dct=1 / cqm=0 / deadzone=21,11 / fast_pskip=0 / chroma_qp_offset=-3 / threads=3 / lookahead_threads=1 / sliced_threads=0 / nr=0 / decimate=0 / interlaced=0 / bluray_compat=0 / constrained_intra=0 / bframes=8 / b_pyramid=2 / b_adapt=2 / b_bias=0 / direct=3 / weightb=1 / open_gop=0 / weightp=2 / keyint=240 / keyint_min=24 / scenecut=40 / intra_refresh=0 / rc_lookahead=60 / rc=2pass / mbtree=0 / bitrate=5700 / ratetol=1.0 / qcomp=0.65 / qpmin=0 / qpmax=69 / qpstep=4 / cplxblur=20.0 / qblur=0.5 / vbv_maxrate=40000 / vbv_bufsize=30000 / nal_hrd=none / ip_ratio=1.40 / pb_ratio=1.30 / aq=1:0.80
Default : Yes
Forced : No

Audio
ID : 2
Format : AC-3
Format/Info : Audio Coding 3
Mode extension : CM (complete main)
Format settings, Endianness : Big
Codec ID : A_AC3
Duration : 1h 36mn
Bit rate mode : Constant
Bit rate : 640 Kbps
Channel count : 6 channels
Channel positions : Front: L C R, Side: L R, LFE
Sampling rate : 48.0 KHz
Bit depth : 16 bits
Compression mode : Lossy
Stream size : 443 MiB (10%)
Title : Оригинал
Language : Russian
Default : Yes
Forced : No

Menu
00:00:00.000 : en:
00:01:32.708 : en:
00:10:33.833 : en:
00:20:56.000 : en:
00:35:42.375 : en:
00:46:41.583 : en:
00:59:21.125 : en:
01:13:40.500 : en:
01:25:07.000 : en:
 

Вложения

Привет!

Мы группа людей которые решили помочь другим в решении их проблем, а так же пользователям с поиском самых свежих и качественных инфопродуктов. За 4 с небольшим месяца мы создали этот форум на который заходят ежедневно тысячи человек и посещаемость постоянно растёт. Мы создали панель лицензирования для защиты PHP скриптов от воровства и SEO панель для мониторинга наших сайтов и выбора верной стратегии их развития. Мы надеемся что то что мы создали пригодится Вам и возможно Вы поможете нам развиваться и совершенствоваться вместе с Вами.

Статистика форума

Темы
410.521
Сообщения
469.056
Пользователи
85.937
Новый пользователь
bvcxz88

Приложения форума для iOS и Android


У ркн там нет власти ;)
Приватные разговоры
Помощь Пользователи
    Вы не присоединились ни к одной комнате.