За последнюю неделю опубликовано 0 новых материалов.
Инструкция новичку Путеводитель по форуму Прокси для Telegram Показать подсказки , это бомба!

Скачать Ёлки 1914 (2014) HDRip | КПК бесплатно через торрент

  • Поучаствуй (в качестве покупателя) в любых пяти совместных покупках (кроме завершённых и "Моментальных") и получи группу "Новичок" навсегда -> ссылка на раздел
  • Получай до 480 рублей за каждого приглашенного пользователя!
    представляем Вам очередное расширение партнерской программы, подробности описаны тут -> ссылка
  • 90% материалов доступно к скачиванию после простой регистрации!
    Если же ты хочешь скачивать материалы без требования оставлять отзывы то получи группу "Новичок", 10 способов повышения описаны тут -> ссылка
  • К сожалению количество битых ссылок растет и мы уже не можем их оперативно восстанавливать поэтому просим помощи у каждого нашего пользователя.
    С сегодняшнего дня, за каждую восстановленную ссылку мы заплатим Вам.
    Подробнее тут -> ссылка
  • Перенесем твои заслуги с другого ресурса!
    Мы понимаем как сложно прокачивать аккаунты на форумах, вроде раскачал аккаунт, а тут появляется ресурс в 100 раз круче но тоже с системой прокачки и снова качать аккаунт...
    Предлагаем вам перенести Ваши заслуги на другом подобном ресурсе к нам.
    Подробности описаны тут -> ссылка
  • Вы можете получать по 2.5% с каждой покупки и продажи на маркете! Подробности в теме Партнёрская программа
Если Вы не хотите скачивать, Вы всегда можетепосмотретьонлайн, просто нажмите кнопку ниже :

Открыть плеер

Torrent_Bot

Торрент-Бот
Бот форума
4 Окт 2016
79
196
20
Информация о фильме
Название: Ёлки 1914
Год выхода: 2014
Жанр: комедия, драма, семейный
Режиссер: Ольга Харина, Тимур Бекмамбетов, Заур Засеев
В ролях: Константин Хабенский, Иван Ургант, Сергей Светлаков, Евгения Брик, Нина Дворжецкая, Ирина Архипова, Альберт Филозов, Елена Плаксина, Антон Богданов, Ян Цапник

О фильме: «Такихъ елокъ не было 100 лет»
100 лет назад, Российская империя… Канун Рождества. Декабрьские пробки, праздничные гулянья, роскошные балы и скромные праздники, титулованные дворяне и обычные крестьяне, царская семья и солдаты первой мировой войны, прогрессивные поэты и первые фигуристы — все было по-другому, за исключением … праздника. Люди готовились, жили, верили, мечтали и ждали настоящего чуда — Рождества!



Страна: Россия
Студия: Базелевс Продакшн
Продолжительность: 01:47:27
Перевод: Оригинальное - Лицензия


Файл
Формат: MP4
Качество: HDRip
Видео: 790 Kb/s, 640x272
Аудио: AAC, 72.0 Kb/s (2 ch)

MediaInfo
Формат : MPEG-4
Профиль формата : Base Media
Идентификатор кодека : isom
Размер файла : 669 MiB
Продолжительность : 1h 47mn
Общий поток : 870 Kbps
Дата кодирования : UTC 2015-01-30 17:27:31
Дата пометки : UTC 2015-01-30 17:27:31
Программа кодирования : XviD4PSP 6.0 / 54.29.105

Video
Идентификатор : 1
Формат : AVC
Формат/Информация : Advanced Video Codec
Профиль формата : [email protected]
Параметр CABAC формата : Yes
Параметр ReFrames формата : 5 frames
Идентификатор кодека : avc1
Идентификатор кодека/Информация : Advanced Video Coding
Продолжительность : 1h 47mn
Битрейт : 790 Kbps
Ширина : 640 pixels
Высота : 272 pixels
Соотношение сторон : 2.35:1
Соотношение сторон в оригинале : 2.35:1
Режим частоты кадров : Constant
Частота кадров : 60.000 fps
Цветовое пространство : YUV
Субдискретизация насыщенности : 4:2:0
Битовая глубина : 8 bits
Тип развёртки : Progressive
Бит/(Пиксели*Кадры) : 0.076
Размер потока : 607 MiB (91%)
Библиотека кодирования : x264 core 128 r2216M 198a7ea
Настройки программы : cabac=1 / ref=6 / deblock=1:-2:-2 / analyse=0x3:0x133 / me=tesa / subme=10 / psy=1 / psy_rd=1.00:0.25 / mixed_ref=1 / me_range=16 / chroma_me=1 / trellis=2 / 8x8dct=1 / cqm=0 / deadzone=6,6 / fast_pskip=1 / chroma_qp_offset=-4 / threads=2 / lookahead_threads=1 / sliced_threads=0 / nr=0 / decimate=0 / interlaced=0 / bluray_compat=0 / constrained_intra=0 / bframes=6 / b_pyramid=1 / b_adapt=2 / b_bias=0 / direct=3 / weightb=1 / open_gop=0 / weightp=2 / keyint=600 / keyint_min=60 / scenecut=40 / intra_refresh=0 / rc_lookahead=40 / rc=crf / mbtree=1 / crf=20.0 / qcomp=0.80 / qpmin=10 / qpmax=51 / qpstep=4 / vbv_maxrate=9000 / vbv_bufsize=1835 / crf_max=30.0 / nal_hrd=none / ip_ratio=1.10 / aq=1:0.50
Язык : English
Дата кодирования : UTC 2015-01-30 17:27:31
Дата пометки : UTC 2015-01-30 17:27:31

Audio
Идентификатор : 2
Формат : AAC
Формат/Информация : Advanced Audio Codec
Профиль формата : HE-AACv2 / HE-AAC / LC
Идентификатор кодека : 40
Продолжительность : 1h 47mn
Вид битрейта : Constant
Битрейт : 72.0 Kbps
Каналы : 2 channels / 2 channels / 2 channels
Расположение каналов : Front: L R / Front: L R / Front: L R
Частота : 44.1 KHz / 44.1 KHz / 22.05 KHz
Метод сжатия : Lossy
Размер потока : 55.3 MiB (8%)
Язык : English
Дата кодирования : UTC 2015-01-30 17:27:31
Дата пометки : UTC 2015-01-30 17:27:31



Скриншоты:
5bb5ed48a15a0c70e57ea7d04d4e9974.jpg879568b0a206d73e6be35229bf208bac.jpg85dd4e6f50f3c0dfe0a813d298b19a9c.jpg
 

Вложения

Привет!

Мы группа людей которые решили помочь другим в решении их проблем, а так же пользователям с поиском самых свежих и качественных инфопродуктов. За 4 с небольшим месяца мы создали этот форум на который заходят ежедневно тысячи человек и посещаемость постоянно растёт. Мы создали панель лицензирования для защиты PHP скриптов от воровства и SEO панель для мониторинга наших сайтов и выбора верной стратегии их развития. Мы надеемся что то что мы создали пригодится Вам и возможно Вы поможете нам развиваться и совершенствоваться вместе с Вами.

Статистика форума

Темы
414.370
Сообщения
475.396
Пользователи
96.561
Новый пользователь
starushka

Приложения форума для iOS и Android


У ркн там нет власти ;)
Приватные разговоры
Помощь Пользователи
    Вы не присоединились ни к одной комнате.