За последнюю неделю опубликовано 57 новых материалов.
Инструкция новичку Путеводитель по форуму Прокси для Telegram Показать подсказки , это бомба!

Скачать Ёко - охотница на демонов / Mamono Hunter Youko / Devil Hunter Yohko [S01] (1990-1995) WEBRip 720p | L1 бесплатно через торрент

  • Поучаствуй (в качестве покупателя) в любых пяти совместных покупках (кроме завершённых и "Моментальных") и получи группу "Новичок" навсегда -> ссылка на раздел
  • Получай до 480 рублей за каждого приглашенного пользователя!
    представляем Вам очередное расширение партнерской программы, подробности описаны тут -> ссылка
  • 90% материалов доступно к скачиванию после простой регистрации!
    Если же ты хочешь скачивать материалы без требования оставлять отзывы то получи группу "Новичок", 10 способов повышения описаны тут -> ссылка
  • К сожалению количество битых ссылок растет и мы уже не можем их оперативно восстанавливать поэтому просим помощи у каждого нашего пользователя.
    С сегодняшнего дня, за каждую восстановленную ссылку мы заплатим Вам.
    Подробнее тут -> ссылка
  • Перенесем твои заслуги с другого ресурса!
    Мы понимаем как сложно прокачивать аккаунты на форумах, вроде раскачал аккаунт, а тут появляется ресурс в 100 раз круче но тоже с системой прокачки и снова качать аккаунт...
    Предлагаем вам перенести Ваши заслуги на другом подобном ресурсе к нам.
    Подробности описаны тут -> ссылка
  • Вы можете получать по 2.5% с каждой покупки и продажи на маркете! Подробности в теме Партнёрская программа

Torrent_Bot

Торрент-Бот
Бот форума
4 Окт 2016
92
160
20


Информация о фильме
Название: Ёко - охотница на демонов
Оригинальное название: Mamono Hunter Youko
Год выхода: 1990-1995
Жанр: Приключения, комедия, фэнтези, этти
Тип: OVA
Режиссер: Ямада Кацухиса
Автор оригинала: Муцуки Дзюдзо
Страна: Япония
Студия: Madhouse
Продолжительность: 06 x ~00:40:00

Описание:
Со времён древних богов семейство Мано сражается с демонами, пытающимися захватить мир людей. Неожиданно для себя главная героиня Ёко Мано становится их целью и узнаёт, что она должна продолжить семейное дело. Впоследствии к ней присоединяется начинающая охотница на демонов Адзуса, выбравшая Ёко в свои наставницы.
© Википедия



Озвучивание:
Любительское (одноголосое, закадровое) Persona99
Любительское (одноголосое, закадровое) Suzaku

Субтитры: Русские, английские

Файл
Кодек: x264 | Качество: WEBRip 720p
Видео: AVC/H264, 960x720, ~1300 kbps, 23.976 fps
Аудио 1: rus, AAC LC, 48.0 khz, 2.0 ch, ~170 kbps, vbr | Persona99 (пер. Boris Ivanov)
Аудио 2: rus, AAC LC, 48.0 khz, 2.0 ch, ~170 kbps, vbr | Suzaku (пер. Boris Ivanov)
Аудио 3: jpn, AC3, 48.0 khz, 2.0 ch, 224 kbps, cbr | Original

Скриншоты

MediaInfo
General
Unique ID : 114360469460981500221983729051433948471 (0x560906775E2A7DF38C76794CA0C7D537)
Complete name : 1 серия.mkv
Format : Matroska
Format version : Version 4
File size : 611 MiB
Duration : 44 min 57 s
Overall bit rate : 1 900 kb/s
Encoded date : UTC 2020-05-11 23:35:25
Writing application : mkvmerge v40.0.0 ('Old Town Road + Pony') 64-bit
Writing library : libebml v1.3.9 + libmatroska v1.5.2

Video
ID : 1
Format : AVC
Format/Info : Advanced Video Codec
Format profile : [email protected]
Format settings : CABAC / 5 Ref Frames
Format settings, CABAC : Yes
Format settings, Reference fra : 5 frames
Codec ID : V_MPEG4/ISO/AVC
Duration : 44 min 57 s
Bit rate : 1 332 kb/s
Width : 960 pixels
Height : 720 pixels
Display aspect ratio : 4:3
Frame rate mode : Constant
Frame rate : 23.976 (24000/1001) FPS
Color space : YUV
Chroma subsampling : 4:2:0
Bit depth : 8 bits
Scan type : Progressive
Bits/(Pixel*Frame) : 0.080
Stream size : 428 MiB (70%)
Title : Video
Writing library : x264 core 100 r1659 57b2e56
Encoding settings : cabac=1 / ref=5 / deblock=1:1:1 / analyse=0x3:0x133 / me=umh / subme=7 / psy=1 / psy_rd=1.00:0.00 / mixed_ref=1 / me_range=16 / chroma_me=1 / trellis=2 / 8x8dct=1 / cqm=0 / deadzone=21,11 / fast_pskip=1 / chroma_qp_offset=-2 / threads=6 / sliced_threads=0 / nr=0 / decimate=1 / interlaced=0 / constrained_intra=0 / bframes=4 / b_pyramid=2 / b_adapt=1 / b_bias=0 / direct=1 / weightb=0 / open_gop=0 / weightp=2 / keyint=250 / keyint_min=25 / scenecut=40 / intra_refresh=0 / rc_lookahead=40 / rc=crf / mbtree=1 / crf=20.0 / qcomp=0.60 / qpmin=10 / qpmax=51 / qpstep=4 / ip_ratio=1.40 / aq=1:1.00
Language : Japanese
Default : Yes
Forced : No

Audio #1
ID : 2
Format : AAC LC
Format/Info : Advanced Audio Codec Low Complexity
Codec ID : A_AAC-2
Duration : 44 min 57 s
Bit rate : 169 kb/s
Channel(s) : 2 channels
Channel layout : L R
Sampling rate : 48.0 kHz
Frame rate : 46.875 FPS (1024 SPF)
Compression mode : Lossy
Delay relative to video : 9 ms
Stream size : 54.4 MiB (9%)
Title : Persona99 (пер. Boris Ivanov)
Language : Russian
Default : Yes
Forced : No

Audio #2
ID : 3
Format : AAC LC
Format/Info : Advanced Audio Codec Low Complexity
Codec ID : A_AAC-2
Duration : 44 min 57 s
Bit rate : 171 kb/s
Channel(s) : 2 channels
Channel layout : L R
Sampling rate : 48.0 kHz
Frame rate : 46.875 FPS (1024 SPF)
Compression mode : Lossy
Delay relative to video : 9 ms
Stream size : 55.1 MiB (9%)
Title : Suzaku (пер. Boris Ivanov)
Language : Russian
Default : No
Forced : No

Audio #3
ID : 4
Format : AC-3
Format/Info : Audio Coding 3
Commercial name : Dolby Digital
Codec ID : A_AC3
Duration : 44 min 57 s
Bit rate mode : Constant
Bit rate : 224 kb/s
Channel(s) : 2 channels
Channel layout : L R
Sampling rate : 48.0 kHz
Frame rate : 31.250 FPS (1536 SPF)
Compression mode : Lossy
Stream size : 72.0 MiB (12%)
Title : Original
Language : Japanese
Service kind : Complete Main
Default : No
Forced : No

Menu
00:00:00.000 : ru:Эпизод 1
00:05:08.767 : ru:Эпизод 2
00:08:36.141 : ru:Эпизод 3
00:11:26.686 : ru:Эпизод 4
00:15:49.157 : ru:Эпизод 5
00:19:59.657 : ru:Эпизод 6
00:26:09.151 : ru:Эпизод 7
00:30:23.030 : ru:Эпизод 8
00:32:34.911 : ru:Эпизод 9
00:39:43.381 : ru:Титры / Эндинг
00:42:28.713 : ru:Клип
 

Вложения

  • 18,7 KB Просмотры: 0
    Личеров 0
    Сидеров 0
    Файлов 44
    Объем 3,1 GB

Привет!

Мы группа людей которые решили помочь другим в решении их проблем, а так же пользователям с поиском самых свежих и качественных инфопродуктов. За 4 с небольшим месяца мы создали этот форум на который заходят ежедневно тысячи человек и посещаемость постоянно растёт. Мы создали панель лицензирования для защиты PHP скриптов от воровства и SEO панель для мониторинга наших сайтов и выбора верной стратегии их развития. Мы надеемся что то что мы создали пригодится Вам и возможно Вы поможете нам развиваться и совершенствоваться вместе с Вами.

Статистика форума

Темы
406.651
Сообщения
465.097
Пользователи
84.642
Новый пользователь
margaret5910

Приложения форума для iOS и Android


У ркн там нет власти ;)
Приватные разговоры
Помощь Пользователи
    Вы не присоединились ни к одной комнате.