За последнюю неделю опубликовано 56 новых материалов.
Инструкция новичку Путеводитель по форуму Прокси для Telegram Показать подсказки , это бомба!

Скачать Яма / The Hole (2001) HDRip-AVC | P бесплатно через торрент

  • Поучаствуй (в качестве покупателя) в любых пяти совместных покупках (кроме завершённых и "Моментальных") и получи группу "Новичок" навсегда -> ссылка на раздел
  • Получай до 480 рублей за каждого приглашенного пользователя!
    представляем Вам очередное расширение партнерской программы, подробности описаны тут -> ссылка
  • 90% материалов доступно к скачиванию после простой регистрации!
    Если же ты хочешь скачивать материалы без требования оставлять отзывы то получи группу "Новичок", 10 способов повышения описаны тут -> ссылка
  • К сожалению количество битых ссылок растет и мы уже не можем их оперативно восстанавливать поэтому просим помощи у каждого нашего пользователя.
    С сегодняшнего дня, за каждую восстановленную ссылку мы заплатим Вам.
    Подробнее тут -> ссылка
  • Перенесем твои заслуги с другого ресурса!
    Мы понимаем как сложно прокачивать аккаунты на форумах, вроде раскачал аккаунт, а тут появляется ресурс в 100 раз круче но тоже с системой прокачки и снова качать аккаунт...
    Предлагаем вам перенести Ваши заслуги на другом подобном ресурсе к нам.
    Подробности описаны тут -> ссылка
  • Вы можете получать по 2.5% с каждой покупки и продажи на маркете! Подробности в теме Партнёрская программа
Если Вы не хотите скачивать, Вы всегда можетепосмотретьонлайн, просто нажмите кнопку ниже :

Открыть плеер

Torrent_Bot

Торрент-Бот
Бот форума
4 Окт 2016
92
163
20



Информация о фильме
Название: Яма
Оригинальное название: The Hole
Год выпуска: 2001
Жанр: триллер, драма, детектив
Режиссер: Ник Хэмм
В ролях: Тора Бёрч (Liz), Десмонд Хэррингтон (Mike), Дэниэл Броклбэнк (Martin), Лоуренс Фокс (Geoff), Кира Найтли (Frankie), Эмбет Дэвидц (Dr. Philippa Horwood), Стивен Вэддингтон (DCS Tom Howard), Эмма Гриффитс Малин (Daisy), Джемма Пауэлл (Minnie), Джемма Крэвен (Mrs. Dunn), Анастасия Хилл (Gillian), Келли Хантер (DI Chapman)

О фильме:
Четверо студентов престижной английской школы решили устроить особенную вечеринку и выбрали для этого бункер времен войны. Бросив вызов родителям, школе, обыденной жизни и самим себе, они спускаются в зловещие катакомбы, чтобы подвергнуть свой разум, свои чувства шокирующим приключениям.



Страна: Великобритания
Студия: Canal+ [fr], Cowboy Films, Film Council, Granada Film Productions
Продолжительность: 01:42:18
Перевод: Профессиональный (многоголосый, закадровый)

Файл
Качество: HDRip-AVC | [BDRip-1080p]
Формат: Matroska
Видео: 1024x576 at 23.976 fps, x264, ~2298 kbps
Аудио#1: Russian: AC3, 2 ch, ~224 kbps |MVO, CP-Digital|
Аудио#2: Ukrainian: AC3, 2 ch, ~192 kbps |DVO, Новый канал|
Аудио#3: English: AC3, 2 ch, ~224 kbps
Субтитры: Russian, English

M/I
x264 info: frame I:1071 Avg QP:17.81 size: 60766
x264 info: frame P:28807 Avg QP:18.63 size: 24279
x264 info: frame B:117290 Avg QP:19.90 size: 8513
x264 info: consecutive B-frames: 1.3% 1.1% 4.5% 14.5% 15.4% 54.4% 5.4% 1.7% 1.1% 0.2% 0.1% 0.1% 0.2%

General
Unique ID : 330612607271903027314026916763284107976 (0xF8B9AC0A665E5169D36A74835C9572C8)
Complete name : Яма.(2001).HDRip-AVC.F.S.[-=DoMiNo=-].mkv
Format : Matroska
Format version : Version 4
File size : 2.10 GiB
Duration : 1 h 42 min
Overall bit rate : 2 940 kb/s
Movie name : Яма / The Hole (2001)
Encoded date : UTC 2019-07-03 06:35:04
Writing application : mkvmerge v35.0.0 ('All The Love In The World') 64-bit
Writing library : libebml v1.3.9 + libmatroska v1.5.2
Attachments : poster / poster

Video
ID : 1
Format : AVC
Format/Info : Advanced Video Codec
Format profile : [email protected]
Format settings : CABAC / 12 Ref Frames
Format settings, CABAC : Yes
Format settings, Reference : 12 frames
Codec ID : V_MPEG4/ISO/AVC
Duration : 1 h 42 min
Bit rate : 2 298 kb/s
Width : 1 024 pixels
Height : 576 pixels
Display aspect ratio : 16:9
Frame rate mode : Constant
Frame rate : 23.976 (24000/1001) FPS
Color space : YUV
Chroma subsampling : 4:2:0
Bit depth : 8 bits
Scan type : Progressive
Bits/(Pixel*Frame) : 0.162
Stream size : 1.64 GiB (78%)
Title : RIP_BY_-=DoMiNo=-
Writing library : x264 core 157 r2969 d4099dd
Encoding settings : cabac=1 / ref=12 / deblock=1:-2:-2 / analyse=0x3:0x133 / me=umh / subme=11 / psy=1 / psy_rd=1.00:0.00 / mixed_ref=1 / me_range=32 / chroma_me=1 / trellis=2 / 8x8dct=1 / cqm=0 / deadzone=21,11 / fast_pskip=1 / chroma_qp_offset=-2 / threads=6 / lookahead_threads=1 / sliced_threads=0 / nr=0 / decimate=1 / interlaced=0 / bluray_compat=0 / constrained_intra=0 / bframes=12 / b_pyramid=2 / b_adapt=2 / b_bias=0 / direct=1 / weightb=1 / open_gop=0 / weightp=2 / keyint=240 / keyint_min=23 / scenecut=40 / intra_refresh=0 / rc=crf / mbtree=0 / crf=19.5 / qcomp=0.80 / qpmin=16 / qpmax=69 / qpstep=4 / ip_ratio=1.40 / pb_ratio=1.30 / aq=3:1.00
Language : English
Default : Yes
Forced : No
Color range : Limited
Matrix coefficients : BT.709

Audio #1
ID : 2
Format : AC-3
Format/Info : Audio Coding 3
Commercial name : Dolby Digital
Codec ID : A_AC3
Duration : 1 h 42 min
Bit rate mode : Constant
Bit rate : 224 kb/s
Channel(s) : 2 channels
Channel layout : L R
Sampling rate : 48.0 kHz
Frame rate : 31.250 FPS (1536 SPF)
Bit depth : 16 bits
Compression mode : Lossy
Stream size : 164 MiB (8%)
Title : MVO_[CP-Digital]
Language : Russian
Service kind : Complete Main
Default : Yes
Forced : No

Audio #2
ID : 3
Format : AC-3
Format/Info : Audio Coding 3
Commercial name : Dolby Digital
Codec ID : A_AC3
Duration : 1 h 42 min
Bit rate mode : Constant
Bit rate : 192 kb/s
Channel(s) : 2 channels
Channel layout : L R
Sampling rate : 48.0 kHz
Frame rate : 31.250 FPS (1536 SPF)
Bit depth : 16 bits
Compression mode : Lossy
Stream size : 140 MiB (7%)
Title : DVO.Новый канал
Language : Ukrainian
Service kind : Complete Main
Default : No
Forced : No

Audio #3
ID : 4
Format : AC-3
Format/Info : Audio Coding 3
Commercial name : Dolby Digital
Codec ID : A_AC3
Duration : 1 h 42 min
Bit rate mode : Constant
Bit rate : 224 kb/s
Channel(s) : 2 channels
Channel layout : L R
Sampling rate : 48.0 kHz
Frame rate : 31.250 FPS (1536 SPF)
Bit depth : 16 bits
Compression mode : Lossy
Stream size : 164 MiB (8%)
Title : ENG
Language : English
Service kind : Complete Main
Default : No
Forced : No

Text #1
ID : 5
Format : UTF-8
Codec ID : S_TEXT/UTF8
Codec ID/Info : UTF-8 Plain Text
Duration : 1 h 38 min
Bit rate : 75 b/s
Count of elements : 915
Stream size : 54.2 KiB (0%)
Title : RUS
Language : Russian
Default : No
Forced : No

Text #2
ID : 6
Format : UTF-8
Codec ID : S_TEXT/UTF8
Codec ID/Info : UTF-8 Plain Text
Duration : 1 h 33 min
Bit rate : 54 b/s
Count of elements : 1006
Stream size : 37.1 KiB (0%)
Title : ENG
Language : English
Default : No
Forced : No

Menu
00:00:00.000 : :CHAPTER 01
00:05:10.727 : :CHAPTER 02
00:11:58.551 : :CHAPTER 03
00:16:54.639 : :CHAPTER 04
00:24:21.043 : :CHAPTER 05
00:32:35.912 : :CHAPTER 06
00:39:23.319 : :CHAPTER 07
00:43:48.042 : :CHAPTER 08
00:50:30.653 : :CHAPTER 09
00:58:40.142 : :CHAPTER 10
01:03:31.182 : :CHAPTER 11
01:10:26.471 : :CHAPTER 12
01:18:42.009 : :CHAPTER 13
01:25:46.308 : :CHAPTER 14
01:33:51.376 : :CHAPTER 15
Скриншоты
 

Вложения

  • 11,5 KB Просмотры: 1
    Личеров 0
    Сидеров 0
    Файлов 1
    Объем 2,1 GB

Привет!

Мы группа людей которые решили помочь другим в решении их проблем, а так же пользователям с поиском самых свежих и качественных инфопродуктов. За 4 с небольшим месяца мы создали этот форум на который заходят ежедневно тысячи человек и посещаемость постоянно растёт. Мы создали панель лицензирования для защиты PHP скриптов от воровства и SEO панель для мониторинга наших сайтов и выбора верной стратегии их развития. Мы надеемся что то что мы создали пригодится Вам и возможно Вы поможете нам развиваться и совершенствоваться вместе с Вами.

Статистика форума

Темы
406.697
Сообщения
465.158
Пользователи
84.770
Новый пользователь
fron83

Приложения форума для iOS и Android


У ркн там нет власти ;)
Приватные разговоры
Помощь Пользователи
    Вы не присоединились ни к одной комнате.