За последнюю неделю опубликовано 57 новых материалов.
Инструкция новичку Путеводитель по форуму Прокси для Telegram Показать подсказки , это бомба!

Скачать Ядовитый плющ / Poison Ivy (1992) DVDRip-AVC | Unrated | Full Screen | P, P2, A бесплатно через торрент

  • Поучаствуй (в качестве покупателя) в любых пяти совместных покупках (кроме завершённых и "Моментальных") и получи группу "Новичок" навсегда -> ссылка на раздел
  • Получай до 480 рублей за каждого приглашенного пользователя!
    представляем Вам очередное расширение партнерской программы, подробности описаны тут -> ссылка
  • 90% материалов доступно к скачиванию после простой регистрации!
    Если же ты хочешь скачивать материалы без требования оставлять отзывы то получи группу "Новичок", 10 способов повышения описаны тут -> ссылка
  • К сожалению количество битых ссылок растет и мы уже не можем их оперативно восстанавливать поэтому просим помощи у каждого нашего пользователя.
    С сегодняшнего дня, за каждую восстановленную ссылку мы заплатим Вам.
    Подробнее тут -> ссылка
  • Перенесем твои заслуги с другого ресурса!
    Мы понимаем как сложно прокачивать аккаунты на форумах, вроде раскачал аккаунт, а тут появляется ресурс в 100 раз круче но тоже с системой прокачки и снова качать аккаунт...
    Предлагаем вам перенести Ваши заслуги на другом подобном ресурсе к нам.
    Подробности описаны тут -> ссылка
  • Вы можете получать по 2.5% с каждой покупки и продажи на маркете! Подробности в теме Партнёрская программа
Если Вы не хотите скачивать, Вы всегда можетепосмотретьонлайн, просто нажмите кнопку ниже :

Открыть плеер

Torrent_Bot

Торрент-Бот
Бот форума
4 Окт 2016
92
163
20

Название: Ядовитый плющ
Оригинальное название: Poison Ivy
Год выхода: 1992
Страна: США
Студия: New Line Cinema, MG Entertainment
Продолжительность: 01:34:03
Жанр: триллер, драма
Режиссер: Кэтт Ши
В ролях: Дрю Бэрримор, Сара Гилберт, Том Скеррит, Шерил Лэдд, Алан Сток, Джинн Саката, Э.Дж. Мур, Дж.Б. Квон, Майкл Голднер, Чарли Хейуорд, ...

Перевод:
- Профессиональный (многоголосый, закадровый) СТС
- Профессиональный (многоголосый, закадровый) Россия
- Профессиональный (двухголосый, закадровый) НТВ+
- Авторский (одноголосый, закадровый) Иванов Михаил Николаевич
- Авторский (одноголосый, закадровый) Дохалов Вартан Карлович
- Субтитры

О фильме: В привилегированной частной школе учатся две девушки, которых объединяет, пожалуй, только ненависть ко всему человечеству. Одна из них, Сильвия Купер, дочка известного продюсера, однажды звонит на телеканал, где работает ее отец, и сообщает о том, что в здании заложена бомба. Эта ужасная выходка привлекает к Сильвии внимание Айви.
Айви — сирота, живет на попечении небогатой тети. В частную школу она смогла попасть только благодаря специальной стипендии. Сильвия и Айви становятся подругами. Айви переезжает из дома тети в шикарное жилище Сильвии и ее родителей, нахально и цепко, как ядовитый плющ, внедряется в чужую семью. Мало того, что Айви оказывает дурное влияние на свою подругу, она соблазняет ее отца, пытается устранить с дороги мать Сильвии, чтобы стать полноправной и единственной хозяйкой роскошного дома…



Кодек: x264
Качество: DVDRip-AVC
Видео: 720x540 , 3000 kbps, 23,976 fps
Аудио #1: AC-3, 2 ch, 192 kbps (Rus) - MVO СТС
Аудио #2: AC-3, 2 ch, 192 kbps (Rus) - MVO Россия
Аудио #3: AC-3, 2 ch, 192 kbps (Rus) - DVO НТВ+
Аудио #4: AC-3, 6 ch, 448 kbps (Rus) - AVO Иванов Михаил Николаевич
Аудио #5: AC-3, 2 ch, 192 kbps (Rus) - AVO Дохалов Вартан Карлович
Аудио #6: AC-3, 6 ch, 448 kbps (Eng)
Субтитры: русские, английские

Дополнительная информация
За исходник спасибо - sl_petrovich

Для полного перевода фильма, все дороги (кроме Иванова) имеют незначительные вставки.

Сравниваем с BD на предмет наполнения кадра:

MI
x264 [info]: frame I:846 Avg QP:13.72 size: 54905
x264 [info]: frame P:27206 Avg QP:16.27 size: 28957
x264 [info]: frame B:107260 Avg QP:18.21 size: 11949
x264 [info]: consecutive B-frames: 1.2% 1.8% 7.9% 12.5% 8.1% 65.2% 1.9% 0.5% 0.3% 0.1% 0.1% 0.2% 0.2%

Общее
Уникальный идентификатор : 183530109405113290756526908839723828247 (0x8A129D03D99DCC25B7AC2A9D2A508417)
Полное имя : Ядовитый плющ (Poison Ivy) 1992 DVDRip.mkv
Формат : Matroska
Версия формата : Version 2
Размер файла : 3,07 Гбайт
Продолжительность : 1 ч. 34 м.
Общий поток : 4666 Кбит/сек
Дата кодирования : UTC 2020-06-24 11:30:04
Программа кодирования : mkvmerge v4.0.0 ('The Stars were mine') сборка от Jun 6 2010 16:18:42
Библиотека кодирования : libebml v1.0.0 + libmatroska v1.0.0

Видео
Идентификатор : 1
Формат : AVC
Формат/Информация : Advanced Video Codec
Профиль формата : [email protected]
Параметр CABAC формата : Да
Параметр ReFrames формата : 9 кадров
Идентификатор кодека : V_MPEG4/ISO/AVC
Продолжительность : 1 ч. 34 м.
Битрейт : 3000 Кбит/сек
Ширина : 720 пикселей
Высота : 540 пикселей
Соотношение сторон : 4:3
Режим частоты кадров : Постоянный
Частота кадров : 23,976 (24000/1001) кадра/сек
Цветовое пространство : YUV
Субдискретизация насыщенности : 4:2:0
Битовая глубина : 8 бит
Тип развёртки : Прогрессивная
Бит/(Пиксели*Кадры) : 0.322
Размер потока : 1,91 Гбайт (62%)
Библиотека кодирования : x264 core 146 r2538 121396c
Настройки программы : cabac=1 / ref=9 / deblock=1:-3:-3 / analyse=0x3:0x133 / me=umh / subme=11 / psy=1 / psy_rd=1.00:0.00 / mixed_ref=1 / me_range=32 / chroma_me=1 / trellis=2 / 8x8dct=1 / cqm=0 / deadzone=21,11 / fast_pskip=0 / chroma_qp_offset=-2 / threads=12 / lookahead_threads=2 / sliced_threads=0 / nr=0 / decimate=0 / interlaced=0 / bluray_compat=0 / constrained_intra=0 / bframes=12 / b_pyramid=2 / b_adapt=2 / b_bias=0 / direct=3 / weightb=1 / open_gop=0 / weightp=2 / keyint=240 / keyint_min=23 / scenecut=40 / intra_refresh=0 / rc=2pass / mbtree=0 / bitrate=3000 / ratetol=1.0 / qcomp=0.60 / qpmin=0 / qpmax=69 / qpstep=4 / cplxblur=20.0 / qblur=0.5 / ip_ratio=1.40 / pb_ratio=1.30 / aq=1:0.80
Язык : English
Default : Нет
Forced : Нет

Аудио #1
Идентификатор : 2
Формат : AC-3
Формат/Информация : Audio Coding 3
Расширение режима : CM (complete main)
Параметр Endianness формата : Big
Идентификатор кодека : A_AC3
Продолжительность : 1 ч. 34 м.
Вид битрейта : Постоянный
Битрейт : 192 Кбит/сек
Каналы : 2 канала
Расположение каналов : Front: L R
Частота : 48,0 КГц
Частота кадров : 31,250 кадров/сек (1536 spf)
Метод сжатия : С потерями
Размер потока : 129 Мбайт (4%)
Заголовок : MVO СТС
Язык : Russian
Default : Нет
Forced : Нет

Аудио #2
Идентификатор : 3
Формат : AC-3
Формат/Информация : Audio Coding 3
Расширение режима : CM (complete main)
Параметр Endianness формата : Big
Идентификатор кодека : A_AC3
Продолжительность : 1 ч. 34 м.
Вид битрейта : Постоянный
Битрейт : 192 Кбит/сек
Каналы : 2 канала
Расположение каналов : Front: L R
Частота : 48,0 КГц
Частота кадров : 31,250 кадров/сек (1536 spf)
Метод сжатия : С потерями
Размер потока : 129 Мбайт (4%)
Заголовок : MVO Россия
Язык : Russian
Default : Нет
Forced : Нет

Аудио #3
Идентификатор : 4
Формат : AC-3
Формат/Информация : Audio Coding 3
Расширение режима : CM (complete main)
Параметр Endianness формата : Big
Идентификатор кодека : A_AC3
Продолжительность : 1 ч. 34 м.
Вид битрейта : Постоянный
Битрейт : 192 Кбит/сек
Каналы : 2 канала
Расположение каналов : Front: L R
Частота : 48,0 КГц
Частота кадров : 31,250 кадров/сек (1536 spf)
Метод сжатия : С потерями
Размер потока : 129 Мбайт (4%)
Заголовок : DVO НТВ+ (Елена Соловьёва и Дмитрий Полонский)
Язык : Russian
Default : Нет
Forced : Нет

Аудио #4
Идентификатор : 5
Формат : AC-3
Формат/Информация : Audio Coding 3
Расширение режима : CM (complete main)
Параметр Endianness формата : Big
Идентификатор кодека : A_AC3
Продолжительность : 1 ч. 34 м.
Вид битрейта : Постоянный
Битрейт : 448 Кбит/сек
Каналы : 6 каналов
Расположение каналов : Front: L C R, Side: L R, LFE
Частота : 48,0 КГц
Частота кадров : 31,250 кадров/сек (1536 spf)
Метод сжатия : С потерями
Размер потока : 301 Мбайт (10%)
Заголовок : AVO Иванов Михаил Николаевич
Язык : Russian
Default : Нет
Forced : Нет

Аудио #5
Идентификатор : 6
Формат : AC-3
Формат/Информация : Audio Coding 3
Расширение режима : CM (complete main)
Параметр Endianness формата : Big
Идентификатор кодека : A_AC3
Продолжительность : 1 ч. 34 м.
Вид битрейта : Постоянный
Битрейт : 192 Кбит/сек
Каналы : 2 канала
Расположение каналов : Front: L R
Частота : 48,0 КГц
Частота кадров : 31,250 кадров/сек (1536 spf)
Метод сжатия : С потерями
Размер потока : 129 Мбайт (4%)
Заголовок : AVO Дохалов Вартан Карлович
Язык : Russian
Default : Нет
Forced : Нет

Аудио #6
Идентификатор : 7
Формат : AC-3
Формат/Информация : Audio Coding 3
Расширение режима : CM (complete main)
Параметр Endianness формата : Big
Идентификатор кодека : A_AC3
Продолжительность : 1 ч. 34 м.
Вид битрейта : Постоянный
Битрейт : 448 Кбит/сек
Каналы : 6 каналов
Расположение каналов : Front: L C R, Side: L R, LFE
Частота : 48,0 КГц
Частота кадров : 31,250 кадров/сек (1536 spf)
Метод сжатия : С потерями
Размер потока : 301 Мбайт (10%)
Язык : English
Default : Нет
Forced : Нет

Текст #1
Идентификатор : 8
Формат : UTF-8
Идентификатор кодека : S_TEXT/UTF8
Идентификатор кодека/Информация : UTF-8 Plain Text
Язык : Russian
Default : Нет
Forced : Нет

Текст #2
Идентификатор : 9
Формат : UTF-8
Идентификатор кодека : S_TEXT/UTF8
Идентификатор кодека/Информация : UTF-8 Plain Text
Язык : English
Default : Нет
Forced : Нет

Меню
00:00:00.066 : en:Chapter 01
00:04:13.636 : en:Chapter 02
00:06:32.275 : en:Chapter 03
00:09:46.669 : en:Chapter 04
00:13:30.359 : en:Chapter 05
00:19:19.041 : en:Chapter 06
00:21:23.832 : en:Chapter 07
00:23:58.820 : en:Chapter 08
00:25:14.062 : en:Chapter 09
00:29:24.312 : en:Chapter 10
00:34:01.022 : en:Chapter 11
00:37:46.297 : en:Chapter 12
00:42:04.939 : en:Chapter 13
00:46:05.712 : en:Chapter 14
00:51:05.278 : en:Chapter 15
00:57:36.703 : en:Chapter 16
00:59:49.936 : en:Chapter 17
01:02:44.410 : en:Chapter 18
01:04:44.397 : en:Chapter 19
01:06:48.871 : en:Chapter 20
01:11:16.121 : en:Chapter 21
01:17:54.152 : en:Chapter 22
01:22:51.416 : en:Chapter 23
01:25:51.729 : en:Chapter 24
01:29:53.304 : en:Chapter 25

 

Вложения

  • 16,2 KB Просмотры: 1
    Личеров 0
    Сидеров 0
    Файлов 1
    Объем 3,1 GB

Привет!

Мы группа людей которые решили помочь другим в решении их проблем, а так же пользователям с поиском самых свежих и качественных инфопродуктов. За 4 с небольшим месяца мы создали этот форум на который заходят ежедневно тысячи человек и посещаемость постоянно растёт. Мы создали панель лицензирования для защиты PHP скриптов от воровства и SEO панель для мониторинга наших сайтов и выбора верной стратегии их развития. Мы надеемся что то что мы создали пригодится Вам и возможно Вы поможете нам развиваться и совершенствоваться вместе с Вами.

Статистика форума

Темы
406.698
Сообщения
465.162
Пользователи
84.790
Новый пользователь
wesennijh

Приложения форума для iOS и Android


У ркн там нет власти ;)
Приватные разговоры
Помощь Пользователи
    Вы не присоединились ни к одной комнате.