За последнюю неделю опубликовано 50 новых материалов.
Инструкция новичку Путеводитель по форуму Прокси для Telegram Показать подсказки , это бомба!

Скачать Ядовитый плющ / Poison Ivy (1992) BDRip 1080p | Unrated | P, P2, A бесплатно через торрент

  • Поучаствуй (в качестве покупателя) в любых пяти совместных покупках (кроме завершённых и "Моментальных") и получи группу "Новичок" навсегда -> ссылка на раздел
  • Получай до 480 рублей за каждого приглашенного пользователя!
    представляем Вам очередное расширение партнерской программы, подробности описаны тут -> ссылка
  • 90% материалов доступно к скачиванию после простой регистрации!
    Если же ты хочешь скачивать материалы без требования оставлять отзывы то получи группу "Новичок", 10 способов повышения описаны тут -> ссылка
  • К сожалению количество битых ссылок растет и мы уже не можем их оперативно восстанавливать поэтому просим помощи у каждого нашего пользователя.
    С сегодняшнего дня, за каждую восстановленную ссылку мы заплатим Вам.
    Подробнее тут -> ссылка
  • Перенесем твои заслуги с другого ресурса!
    Мы понимаем как сложно прокачивать аккаунты на форумах, вроде раскачал аккаунт, а тут появляется ресурс в 100 раз круче но тоже с системой прокачки и снова качать аккаунт...
    Предлагаем вам перенести Ваши заслуги на другом подобном ресурсе к нам.
    Подробности описаны тут -> ссылка
  • Вы можете получать по 2.5% с каждой покупки и продажи на маркете! Подробности в теме Партнёрская программа
Если Вы не хотите скачивать, Вы всегда можетепосмотретьонлайн, просто нажмите кнопку ниже :

Открыть плеер

Torrent_Bot

Торрент-Бот
Бот форума
4 Окт 2016
93
160
20

Название: Ядовитый плющ
Оригинальное название: Poison Ivy
Год выхода: 1992
Страна: США
Студия: New Line Cinema, MG Entertainment
Продолжительность: 01:34:07
Жанр: триллер, драма
Режиссер: Кэтт Ши
В ролях: Дрю Бэрримор, Сара Гилберт, Том Скеррит, Шерил Лэдд, Алан Сток, Джинн Саката, Э.Дж. Мур, Дж.Б. Квон, Майкл Голднер, Чарли Хейуорд, ...

Перевод:
- Профессиональный (многоголосый, закадровый) СТС
- Профессиональный (многоголосый, закадровый) Россия
- Профессиональный (двухголосый, закадровый) НТВ+
- Авторский (одноголосый, закадровый) Иванов Михаил Николаевич
- Авторский (одноголосый, закадровый) Дохалов Вартан Карлович
- Субтитры

О фильме: В привилегированной частной школе учатся две девушки, которых объединяет, пожалуй, только ненависть ко всему человечеству. Одна из них, Сильвия Купер, дочка известного продюсера, однажды звонит на телеканал, где работает ее отец, и сообщает о том, что в здании заложена бомба. Эта ужасная выходка привлекает к Сильвии внимание Айви.
Айви — сирота, живет на попечении небогатой тети. В частную школу она смогла попасть только благодаря специальной стипендии. Сильвия и Айви становятся подругами. Айви переезжает из дома тети в шикарное жилище Сильвии и ее родителей, нахально и цепко, как ядовитый плющ, внедряется в чужую семью. Мало того, что Айви оказывает дурное влияние на свою подругу, она соблазняет ее отца, пытается устранить с дороги мать Сильвии, чтобы стать полноправной и единственной хозяйкой роскошного дома…



Кодек: x264
Качество: BDRip 1080p
Видео: 1920x1036, 14000 kbps, 23,976 fps
Аудио #1: AC-3, 2 ch, 192 kbps (Rus) - MVO СТС
Аудио #2: AC-3, 2 ch, 192 kbps (Rus) - MVO Россия
Аудио #3: AC-3, 2 ch, 192 kbps (Rus) - DVO НТВ+
Аудио #4: AC-3, 6 ch, 448 kbps (Rus) - AVO Иванов Михаил Николаевич
Аудио #5: AC-3, 2 ch, 192 kbps (Rus) - AVO Дохалов Вартан Карлович
Аудио #6: AC-3, 6 ch, 448 kbps (Eng) - DVD
Аудио #7: DTS, 2 ch, 1509 kbps (Eng)
Субтитры: русские, английские
Спасибо за исходник

Дополнительная информация
Для полного перевода фильма, все дороги (кроме Иванова) имеют незначительные вставки.
Двухканальный DTS на исходнике почему то mono. На DVD честный 5.1

Сравниваем с DVD на предмет наполнения кадра:

MI
x264 [info]: frame I:675 Avg QP:15.87 size:171631
x264 [info]: frame P:25987 Avg QP:18.24 size:102892
x264 [info]: frame B:108737 Avg QP:20.09 size: 65165
x264 [info]: consecutive B-frames: 1.1% 1.6% 6.6% 9.6% 11.0% 58.2% 3.4% 1.0% 1.7% 1.6% 1.3% 1.4% 0.6% 0.5% 0.5%

Общее
Уникальный идентификатор : 216619827691400617427160008969000313502 (0xA2F77615C88811CABD1948F9898FE29E)
Полное имя : Ядовитый плющ (Poison Ivy) 1992 BDRip 1080p.mkv
Формат : Matroska
Версия формата : Version 2
Размер файла : 11,3 Гбайт
Продолжительность : 1 ч. 34 м.
Общий поток : 17,2 Мбит/сек
Дата кодирования : UTC 2020-06-24 11:09:49
Программа кодирования : mkvmerge v4.0.0 ('The Stars were mine') сборка от Jun 6 2010 16:18:42
Библиотека кодирования : libebml v1.0.0 + libmatroska v1.0.0

Видео
Идентификатор : 1
Формат : AVC
Формат/Информация : Advanced Video Codec
Профиль формата : [email protected]
Параметр CABAC формата : Да
Параметр ReFrames формата : 4 кадра
Идентификатор кодека : V_MPEG4/ISO/AVC
Продолжительность : 1 ч. 34 м.
Битрейт : 14,0 Мбит/сек
Ширина : 1920 пикселей
Высота : 1036 пикселей
Соотношение сторон : 1,85:1
Режим частоты кадров : Постоянный
Частота кадров : 23,976 (24000/1001) кадра/сек
Цветовое пространство : YUV
Субдискретизация насыщенности : 4:2:0
Битовая глубина : 8 бит
Тип развёртки : Прогрессивная
Бит/(Пиксели*Кадры) : 0.294
Размер потока : 8,98 Гбайт (80%)
Библиотека кодирования : x264 core 146 r2538 121396c
Настройки программы : cabac=1 / ref=4 / deblock=1:-1:-1 / analyse=0x3:0x133 / me=umh / subme=11 / psy=1 / psy_rd=1.00:0.00 / mixed_ref=1 / me_range=32 / chroma_me=1 / trellis=2 / 8x8dct=1 / cqm=0 / deadzone=21,11 / fast_pskip=0 / chroma_qp_offset=-2 / threads=12 / lookahead_threads=2 / sliced_threads=0 / nr=0 / decimate=0 / interlaced=0 / bluray_compat=0 / constrained_intra=0 / bframes=14 / b_pyramid=2 / b_adapt=2 / b_bias=0 / direct=3 / weightb=1 / open_gop=0 / weightp=2 / keyint=240 / keyint_min=23 / scenecut=40 / intra_refresh=0 / rc=2pass / mbtree=0 / bitrate=14000 / ratetol=1.0 / qcomp=0.60 / qpmin=0 / qpmax=69 / qpstep=4 / cplxblur=20.0 / qblur=0.5 / ip_ratio=1.40 / pb_ratio=1.30 / aq=2:0.80
Язык : English
Default : Нет
Forced : Нет

Аудио #1
Идентификатор : 2
Формат : AC-3
Формат/Информация : Audio Coding 3
Расширение режима : CM (complete main)
Параметр Endianness формата : Big
Идентификатор кодека : A_AC3
Продолжительность : 1 ч. 34 м.
Вид битрейта : Постоянный
Битрейт : 192 Кбит/сек
Каналы : 2 канала
Расположение каналов : Front: L R
Частота : 48,0 КГц
Частота кадров : 31,250 кадров/сек (1536 spf)
Метод сжатия : С потерями
Размер потока : 129 Мбайт (1%)
Заголовок : MVO СТС
Язык : Russian
Default : Нет
Forced : Нет

Аудио #2
Идентификатор : 3
Формат : AC-3
Формат/Информация : Audio Coding 3
Расширение режима : CM (complete main)
Параметр Endianness формата : Big
Идентификатор кодека : A_AC3
Продолжительность : 1 ч. 34 м.
Вид битрейта : Постоянный
Битрейт : 192 Кбит/сек
Каналы : 2 канала
Расположение каналов : Front: L R
Частота : 48,0 КГц
Частота кадров : 31,250 кадров/сек (1536 spf)
Метод сжатия : С потерями
Размер потока : 129 Мбайт (1%)
Заголовок : MVO Россия
Язык : Russian
Default : Нет
Forced : Нет

Аудио #3
Идентификатор : 4
Формат : AC-3
Формат/Информация : Audio Coding 3
Расширение режима : CM (complete main)
Параметр Endianness формата : Big
Идентификатор кодека : A_AC3
Продолжительность : 1 ч. 34 м.
Вид битрейта : Постоянный
Битрейт : 192 Кбит/сек
Каналы : 2 канала
Расположение каналов : Front: L R
Частота : 48,0 КГц
Частота кадров : 31,250 кадров/сек (1536 spf)
Метод сжатия : С потерями
Размер потока : 129 Мбайт (1%)
Заголовок : DVO НТВ+ (Елена Соловьёва и Дмитрий Полонский)
Язык : Russian
Default : Нет
Forced : Нет

Аудио #4
Идентификатор : 5
Формат : AC-3
Формат/Информация : Audio Coding 3
Расширение режима : CM (complete main)
Параметр Endianness формата : Big
Идентификатор кодека : A_AC3
Продолжительность : 1 ч. 34 м.
Вид битрейта : Постоянный
Битрейт : 448 Кбит/сек
Каналы : 6 каналов
Расположение каналов : Front: L C R, Side: L R, LFE
Частота : 48,0 КГц
Частота кадров : 31,250 кадров/сек (1536 spf)
Метод сжатия : С потерями
Размер потока : 302 Мбайт (3%)
Заголовок : AVO Иванов Михаил Николаевич
Язык : Russian
Default : Нет
Forced : Нет

Аудио #5
Идентификатор : 6
Формат : AC-3
Формат/Информация : Audio Coding 3
Расширение режима : CM (complete main)
Параметр Endianness формата : Big
Идентификатор кодека : A_AC3
Продолжительность : 1 ч. 34 м.
Вид битрейта : Постоянный
Битрейт : 192 Кбит/сек
Каналы : 2 канала
Расположение каналов : Front: L R
Частота : 48,0 КГц
Частота кадров : 31,250 кадров/сек (1536 spf)
Метод сжатия : С потерями
Размер потока : 129 Мбайт (1%)
Заголовок : AVO Дохалов Вартан Карлович
Язык : Russian
Default : Нет
Forced : Нет

Аудио #6
Идентификатор : 7
Формат : AC-3
Формат/Информация : Audio Coding 3
Расширение режима : CM (complete main)
Параметр Endianness формата : Big
Идентификатор кодека : A_AC3
Продолжительность : 1 ч. 34 м.
Вид битрейта : Постоянный
Битрейт : 448 Кбит/сек
Каналы : 6 каналов
Расположение каналов : Front: L C R, Side: L R, LFE
Частота : 48,0 КГц
Частота кадров : 31,250 кадров/сек (1536 spf)
Метод сжатия : С потерями
Размер потока : 302 Мбайт (3%)
Заголовок : DVD
Язык : English
Default : Нет
Forced : Нет

Аудио #7
Идентификатор : 8
Формат : DTS
Формат/Информация : Digital Theater Systems
Режим : 16
Параметр Endianness формата : Big
Идентификатор кодека : A_DTS
Продолжительность : 1 ч. 34 м.
Вид битрейта : Постоянный
Битрейт : 1509 Кбит/сек
Каналы : 2 канала
Расположение каналов : Front: L R
Частота : 48,0 КГц
Частота кадров : 93,750 кадра/сек (512 spf)
Битовая глубина : 24 бит
Метод сжатия : С потерями
Размер потока : 1016 Мбайт (9%)
Язык : English
Default : Нет
Forced : Нет

Текст #1
Идентификатор : 9
Формат : UTF-8
Идентификатор кодека : S_TEXT/UTF8
Идентификатор кодека/Информация : UTF-8 Plain Text
Язык : Russian
Default : Нет
Forced : Нет

Текст #2
Идентификатор : 10
Формат : UTF-8
Идентификатор кодека : S_TEXT/UTF8
Идентификатор кодека/Информация : UTF-8 Plain Text
Язык : English
Default : Нет
Forced : Нет

Меню
00:00:00.000 : en:Chapter 01
00:08:57.120 : en:Chapter 02
00:15:02.736 : en:Chapter 03
00:21:26.744 : en:Chapter 04
00:30:14.522 : en:Chapter 05
00:37:59.569 : en:Chapter 06
00:46:31.289 : en:Chapter 07
00:54:56.544 : en:Chapter 08
01:03:38.899 : en:Chapter 09
01:11:18.817 : en:Chapter 10
01:20:17.688 : en:Chapter 11
01:28:35.269 : en:Chapter 12
01:34:06.308 : en:Chapter 13

 

Вложения

  • 57,4 KB Просмотры: 0
    Личеров 0
    Сидеров 0
    Файлов 1
    Объем 11,3 GB

Привет!

Мы группа людей которые решили помочь другим в решении их проблем, а так же пользователям с поиском самых свежих и качественных инфопродуктов. За 4 с небольшим месяца мы создали этот форум на который заходят ежедневно тысячи человек и посещаемость постоянно растёт. Мы создали панель лицензирования для защиты PHP скриптов от воровства и SEO панель для мониторинга наших сайтов и выбора верной стратегии их развития. Мы надеемся что то что мы создали пригодится Вам и возможно Вы поможете нам развиваться и совершенствоваться вместе с Вами.

Статистика форума

Темы
406.640
Сообщения
465.116
Пользователи
84.569
Новый пользователь
S_lana

Приложения форума для iOS и Android


У ркн там нет власти ;)
Приватные разговоры
Помощь Пользователи
    Вы не присоединились ни к одной комнате.