За последнюю неделю опубликовано 51 новых материалов.
Инструкция новичку Путеводитель по форуму Прокси для Telegram Показать подсказки , это бомба!

Скачать Я - возмездие / Vengeance (2018) WEB-DL 1080p | HDrezka Studio бесплатно через торрент

  • Поучаствуй (в качестве покупателя) в любых пяти совместных покупках (кроме завершённых и "Моментальных") и получи группу "Новичок" навсегда -> ссылка на раздел
  • Получай до 480 рублей за каждого приглашенного пользователя!
    представляем Вам очередное расширение партнерской программы, подробности описаны тут -> ссылка
  • 90% материалов доступно к скачиванию после простой регистрации!
    Если же ты хочешь скачивать материалы без требования оставлять отзывы то получи группу "Новичок", 10 способов повышения описаны тут -> ссылка
  • К сожалению количество битых ссылок растет и мы уже не можем их оперативно восстанавливать поэтому просим помощи у каждого нашего пользователя.
    С сегодняшнего дня, за каждую восстановленную ссылку мы заплатим Вам.
    Подробнее тут -> ссылка
  • Перенесем твои заслуги с другого ресурса!
    Мы понимаем как сложно прокачивать аккаунты на форумах, вроде раскачал аккаунт, а тут появляется ресурс в 100 раз круче но тоже с системой прокачки и снова качать аккаунт...
    Предлагаем вам перенести Ваши заслуги на другом подобном ресурсе к нам.
    Подробности описаны тут -> ссылка
  • Вы можете получать по 2.5% с каждой покупки и продажи на маркете! Подробности в теме Партнёрская программа
Если Вы не хотите скачивать, Вы всегда можетепосмотретьонлайн, просто нажмите кнопку ниже :

Открыть плеер

Torrent_Bot

Торрент-Бот
Бот форума
4 Окт 2016
91
164
20
Я - возмездие / Vengeance

Страна: Великобритания
Производство: Evolutionary Films, Plumcourt Films
Год выпуска: 2018
Жанр:боевик
Продолжительность: 01:33:26

Режиссер: Росс Бояск
Автор сценария: Росс Бояск

В ролях: Гэри Дэниелс, Кит Аллен, Стю Беннет, Анна Шаффер, Брайан Ларкин, Сапфир Элиа, Орион Ли, Дэниэл Иган, Шон Блоуэрс

Описание: Джон Голд - бывший солдат, а ныне - наёмник, узнаёт о смерти лучшего друга и пытается выяснить, что произошло. В итоге он выясняет, что убийство было частью крупного заговора...



Перевод: Профессиональный (многоголосый, закадровый) | HDrezka Studio
Субтитры: английские


Качество: WEB-DL 1080p
Формат: МКV
Видео кодек: AVC
Аудио кодек: АС3
Видео: 1912x848 (2.25:1), 23.976 fps, MPEG-4 AVC ~4 465 kbps avg
Аудио №1: 48.0 kHz, AC3 Dolby Digital, 2/0 (L,R) ch, ~192 kbps | RUS | HDrezka Studio
Аудио №2: 48.0 kHz, AC3 Dolby Digital, 3/2 (L,C,R,l,r) + LFE ch, ~384 kbps | ENG
Формат субтитров: UTF-8 Plain Text

Дата премьеры (мир): 24 февраля 2018



Media Info
General
Unique ID : 240884206915333574309418227899439974914 (0xB5389C5854AFE41B8723DB6460BB0A02)
Complete name : Vengeance (2018) WEB-DL 1080p.mkv
Format : Matroska
Format version : Version 2
File size : 3.36 GiB
Duration : 1 h 33 min
Overall bit rate : 5 143 kb/s
Encoded date : UTC 2018-09-04 02:42:20
Writing application : mkvmerge v7.8.0 ('River Man') 32bit built on Apr 3 2015 12:11:22
Writing library : libebml v1.3.1 + libmatroska v1.4.2

Video
ID : 1
Format : AVC
Format/Info : Advanced Video Codec
Format profile : [email protected]
Format settings, CABAC : Yes
Format settings, RefFrames : 5 frames
Codec ID : V_MPEG4/ISO/AVC
Duration : 1 h 33 min
Bit rate : 4 465 kb/s
Width : 1 912 pixels
Height : 848 pixels
Display aspect ratio : 2.25:1
Frame rate mode : Constant
Frame rate : 23.976 (24000/1001) FPS
Color space : YUV
Chroma subsampling : 4:2:0
Bit depth : 8 bits
Scan type : Progressive
Bits/(Pixel*Frame) : 0.115
Stream size : 2.91 GiB (87%)
Language : English
Default : Yes
Forced : No
Color range : Limited
Color primaries : BT.709
Transfer characteristics : BT.709
Matrix coefficients : BT.709
Statistics Tags Issue : mkvmerge v25.0.0 ('Prog Noir') 64-bit 2018-08-24 05:33:05 / mkvmerge v7.8.0 ('River Man') 32bit built on Apr 3 2015 12:11:22 2018-09-04 02:42:20
FromStats_BitRate : 4564786
FromStats_Duration : 01:33:26.392000000
FromStats_FrameCount : 134419
FromStats_StreamSize : 3198997736

Audio #1
ID : 2
Format : AC-3
Format/Info : Audio Coding 3
Format settings, Endianness : Big
Codec ID : A_AC3
Duration : 1 h 33 min
Bit rate mode : Constant
Bit rate : 192 kb/s
Channel(s) : 2 channels
Channel positions : Front: L R
Sampling rate : 48.0 kHz
Frame rate : 31.250 FPS (1536 SPF)
Bit depth : 16 bits
Compression mode : Lossy
Delay relative to video : -42 ms
Stream size : 128 MiB (4%)
Language : Russian
Service kind : Complete Main
Default : Yes
Forced : Yes

Audio #2
ID : 3
Format : AC-3
Format/Info : Audio Coding 3
Format settings, Endianness : Big
Codec ID : A_AC3
Duration : 1 h 33 min
Bit rate mode : Constant
Bit rate : 384 kb/s
Channel(s) : 6 channels
Channel positions : Front: L C R, Side: L R, LFE
Sampling rate : 48.0 kHz
Frame rate : 31.250 FPS (1536 SPF)
Bit depth : 16 bits
Compression mode : Lossy
Delay relative to video : -42 ms
Stream size : 257 MiB (7%)
Language : English
Service kind : Complete Main
Default : No
Forced : No
Statistics Tags Issue : mkvmerge v25.0.0 ('Prog Noir') 64-bit 2018-08-24 05:33:05 / mkvmerge v7.8.0 ('River Man') 32bit built on Apr 3 2015 12:11:22 2018-09-04 02:42:20
FromStats_BitRate : 384000
FromStats_Duration : 01:33:26.432000000
FromStats_FrameCount : 175201
FromStats_StreamSize : 269108736

Text
ID : 4
Format : UTF-8
Codec ID : S_TEXT/UTF8
Codec ID/Info : UTF-8 Plain Text
Language : English
Default : No
Forced : No
Statistics Tags Issue : mkvmerge v25.0.0 ('Prog Noir') 64-bit 2018-08-24 05:33:05 / mkvmerge v7.8.0 ('River Man') 32bit built on Apr 3 2015 12:11:22 2018-09-04 02:42:20
FromStats_BitRate : 45
FromStats_Duration : 01:28:28.935000000
FromStats_FrameCount : 1041
FromStats_StreamSize : 30474

Menu
00:00:00.000 : en:1
00:05:34.000 : en:2
00:15:10.000 : en:3
00:24:42.000 : en:4
00:34:48.000 : en:5
00:44:05.000 : en:6
00:57:49.000 : en:7
01:07:57.000 : en:8
01:19:06.000 : en:9
01:29:41.000 : en:10
Скриншоты
 

Вложения

  • 17,7 KB Просмотры: 1
    Личеров 0
    Сидеров 0
    Файлов 1
    Объем 3,4 GB

Привет!

Мы группа людей которые решили помочь другим в решении их проблем, а так же пользователям с поиском самых свежих и качественных инфопродуктов. За 4 с небольшим месяца мы создали этот форум на который заходят ежедневно тысячи человек и посещаемость постоянно растёт. Мы создали панель лицензирования для защиты PHP скриптов от воровства и SEO панель для мониторинга наших сайтов и выбора верной стратегии их развития. Мы надеемся что то что мы создали пригодится Вам и возможно Вы поможете нам развиваться и совершенствоваться вместе с Вами.

Статистика форума

Темы
410.573
Сообщения
469.129
Пользователи
86.234
Новый пользователь
Sergion

Приложения форума для iOS и Android


У ркн там нет власти ;)
Приватные разговоры
Помощь Пользователи
    Вы не присоединились ни к одной комнате.