За последнюю неделю опубликовано 63 новых материалов.
Инструкция новичку Путеводитель по форуму Прокси для Telegram Показать подсказки , это бомба!

Скачать Я, снова я и Ирэн / Me, Myself & Irene (2000) BDRip 1080p | D, A бесплатно через торрент

  • Поучаствуй (в качестве покупателя) в любых пяти совместных покупках (кроме завершённых и "Моментальных") и получи группу "Новичок" навсегда -> ссылка на раздел
  • Получай до 480 рублей за каждого приглашенного пользователя!
    представляем Вам очередное расширение партнерской программы, подробности описаны тут -> ссылка
  • 90% материалов доступно к скачиванию после простой регистрации!
    Если же ты хочешь скачивать материалы без требования оставлять отзывы то получи группу "Новичок", 10 способов повышения описаны тут -> ссылка
  • К сожалению количество битых ссылок растет и мы уже не можем их оперативно восстанавливать поэтому просим помощи у каждого нашего пользователя.
    С сегодняшнего дня, за каждую восстановленную ссылку мы заплатим Вам.
    Подробнее тут -> ссылка
  • Перенесем твои заслуги с другого ресурса!
    Мы понимаем как сложно прокачивать аккаунты на форумах, вроде раскачал аккаунт, а тут появляется ресурс в 100 раз круче но тоже с системой прокачки и снова качать аккаунт...
    Предлагаем вам перенести Ваши заслуги на другом подобном ресурсе к нам.
    Подробности описаны тут -> ссылка
  • Вы можете получать по 2.5% с каждой покупки и продажи на маркете! Подробности в теме Партнёрская программа
Если Вы не хотите скачивать, Вы всегда можетепосмотретьонлайн, просто нажмите кнопку ниже :

Открыть плеер

Torrent_Bot

Торрент-Бот
Бот форума
4 Окт 2016
92
160
20



Информация о фильме
Название: Я, снова я и Ирэн
Оригинальное название: Me, Myself & Irene
Год выхода: 2000
Жанр: Комедия

Режиссер: Бобби Фаррелли, Питер Фаррелли
В ролях: Джим Керри, Рене Зеллвегер, Энтони Андерсон, Соо Браунли, Джерод Миксон, Крис Купер, Майкл Боуман, Ричард Дженкинс, Роберт Форстер, Майк Черроне

О фильме: Чарли – добрый и отзывчивый патрульный полицейский. Но вот беда – он страдает раздвоением личности. Когда кто-то пытается надавить на него, появляется Хэнк – второе «я» Чарли. Это грубый, жестокий, агрессивный и невоспитанный тип, любитель выпивки и сквернословия. Жизнь Чарли превращается в сущий кошмар, ибо Хэнк всегда появляется не вовремя, и постоянно портит ему жизнь. Только в одном их мнения совпадают, – они оба влюбляются в Ирэн, но кого из них выберет капризная красавица?



Страна: США
Студия: Twentieth Century Fox Film Corporation
Продолжительность: 01:56:34
Перевод: Профессиональный (полное дублирование), Профессиональный (многоголосый закадровый) украинский, Авторский (одноголосый закадровый) x 3
Субтитры: Русские, английские

Файл
Качество: BDRip 1080p
Формат: MKV
Видео кодек: H264
Аудио кодек: AC3
Видео: MPEG4 Video (H264), 1920x1032, 23.976fps, 12.5 Mbps
Аудио #01: Русский: Dolby AC3, 48000 Hz, 6ch, 384 kbps - Дубляж, R5
Аудио #02: Русский: Dolby AC3, 48000 Hz, 6ch, 448 kbps - Одноголосый закадровый, Гаврилов
Аудио #03: Русский: Dolby AC3, 48000 Hz, 2ch, 192 kbps - Одноголосый закадровый, Живов
Аудио #04: Русский: Dolby AC3, 48000 Hz, 6ch, 448 kbps - Одноголосый закадровый, Визгунов
Аудио #05: Украинский: Dolby AC3, 48000 Hz, 2ch, 192 kbps - Многоголосый закадровый, Новый канал
Аудио #06: Английский: Dolby AC3, 48000 Hz, 6ch, 448 kbps
Формат субтитров: Softsub (SRT)

Сэмпл

MediaInfo:
General
Unique ID : 198201147155462472919790167879761690130 (0x951C2705C6403A20AC6519B62F1A7E12)
Complete name : F:Torrent 22000.Me.Myself.Irene.renta23.mkv
Format : Matroska
Format version : Version 4 / Version 2
File size : 11.9 GiB
Duration : 1h 56mn
Overall bit rate : 14.6 Mbps
Movie name : 2000 Я, снова я и Ирэн / renta23
Encoded date : UTC 2015-10-15 12:50:19
Writing application : mkvmerge v8.3.0 ('Over the Horizon') 32bit
Writing library : libebml v1.3.1 + libmatroska v1.4.2
DURATION : 01:56:01.795000000
NUMBER_OF_FRAMES : 1517
NUMBER_OF_BYTES : 61643
_STATISTICS_WRITING_APP : mkvmerge v8.3.0 ('Over the Horizon') 32bit
_STATISTICS_WRITING_DATE_UTC : 2015-10-15 12:50:19
_STATISTICS_TAGS : BPS DURATION NUMBER_OF_FRAMES NUMBER_OF_BYTES

Video
ID : 1
Format : AVC
Format/Info : Advanced Video Codec
Format profile : [email protected]
Format settings, CABAC : Yes
Format settings, ReFrames : 3 frames
Codec ID : V_MPEG4/ISO/AVC
Duration : 1h 56mn
Bit rate : 12.5 Mbps
Width : 1 920 pixels
Height : 1 032 pixels
Display aspect ratio : 1.85:1
Frame rate mode : Constant
Frame rate : 23.976 fps
Color space : YUV
Chroma subsampling : 4:2:0
Bit depth : 8 bits
Scan type : Progressive
Bits/(Pixel*Frame) : 0.263
Stream size : 9.90 GiB (84%)
Title : 2000 Я, снова я и Ирэн
Writing library : x264 core 146 r2538 121396c
Encoding settings : cabac=1 / ref=4 / deblock=1:-1:-1 / analyse=0x3:0x113 / me=umh / subme=11 / psy=1 / psy_rd=1.25:0.35 / mixed_ref=1 / me_range=32 / chroma_me=1 / trellis=2 / 8x8dct=1 / cqm=0 / deadzone=21,11 / fast_pskip=0 / chroma_qp_offset=-4 / threads=12 / lookahead_threads=3 / sliced_threads=0 / nr=0 / decimate=0 / interlaced=0 / bluray_compat=0 / constrained_intra=0 / bframes=12 / b_pyramid=1 / b_adapt=2 / b_bias=0 / direct=3 / weightb=1 / open_gop=0 / weightp=2 / keyint=250 / keyint_min=23 / scenecut=40 / intra_refresh=0 / rc_lookahead=50 / rc=2pass / mbtree=1 / bitrate=12500 / ratetol=1.0 / qcomp=0.60 / qpmin=0 / qpmax=69 / qpstep=4 / cplxblur=20.0 / qblur=0.5 / vbv_maxrate=14000 / vbv_bufsize=14000 / nal_hrd=none / filler=0 / ip_ratio=1.40 / aq=1:1.00
Language : English
Default : Yes
Forced : No

Audio #1
ID : 2
Format : AC-3
Format/Info : Audio Coding 3
Mode extension : CM (complete main)
Format settings, Endianness : Big
Codec ID : A_AC3
Duration : 1h 56mn
Bit rate mode : Constant
Bit rate : 384 Kbps
Channel(s) : 6 channels
Channel positions : Front: L C R, Side: L R, LFE
Sampling rate : 48.0 KHz
Compression mode : Lossy
Stream size : 320 MiB (3%)
Title : Дубляж, R5
Language : Russian
Default : Yes
Forced : No

Audio #2
ID : 3
Format : AC-3
Format/Info : Audio Coding 3
Mode extension : CM (complete main)
Format settings, Endianness : Big
Codec ID : A_AC3
Duration : 1h 56mn
Bit rate mode : Constant
Bit rate : 448 Kbps
Channel(s) : 6 channels
Channel positions : Front: L C R, Side: L R, LFE
Sampling rate : 48.0 KHz
Compression mode : Lossy
Stream size : 374 MiB (3%)
Title : Одноголосый закадровый, Гаврилов
Language : Russian
Default : No
Forced : No

Audio #3
ID : 4
Format : AC-3
Format/Info : Audio Coding 3
Mode extension : CM (complete main)
Format settings, Endianness : Big
Codec ID : A_AC3
Duration : 1h 56mn
Bit rate mode : Constant
Bit rate : 192 Kbps
Channel(s) : 2 channels
Channel positions : Front: L R
Sampling rate : 48.0 KHz
Compression mode : Lossy
Stream size : 160 MiB (1%)
Title : Одноголосый закадровый, Живов
Language : Russian
Default : No
Forced : No

Audio #4
ID : 5
Format : AC-3
Format/Info : Audio Coding 3
Mode extension : CM (complete main)
Format settings, Endianness : Big
Codec ID : A_AC3
Duration : 1h 56mn
Bit rate mode : Constant
Bit rate : 448 Kbps
Channel(s) : 6 channels
Channel positions : Front: L C R, Side: L R, LFE
Sampling rate : 48.0 KHz
Compression mode : Lossy
Stream size : 374 MiB (3%)
Title : Одноголосый закадровый, Визгунов
Language : Russian
Default : No
Forced : No

Audio #5
ID : 6
Format : AC-3
Format/Info : Audio Coding 3
Mode extension : CM (complete main)
Format settings, Endianness : Big
Codec ID : A_AC3
Duration : 1h 56mn
Bit rate mode : Constant
Bit rate : 192 Kbps
Channel(s) : 2 channels
Channel positions : Front: L R
Sampling rate : 48.0 KHz
Compression mode : Lossy
Stream size : 160 MiB (1%)
Title : Многоголосый закадровый, Новый канал
Language : Ukrainian
Default : No
Forced : No

Audio #6
ID : 7
Format : AC-3
Format/Info : Audio Coding 3
Mode extension : CM (complete main)
Format settings, Endianness : Big
Codec ID : A_AC3
Duration : 1h 56mn
Bit rate mode : Constant
Bit rate : 448 Kbps
Channel(s) : 6 channels
Channel positions : Front: L C R, Side: L R, LFE
Sampling rate : 48.0 KHz
Compression mode : Lossy
Stream size : 374 MiB (3%)
Language : English
Default : No
Forced : No

Text #1
ID : 8
Format : UTF-8
Codec ID : S_TEXT/UTF8
Codec ID/Info : UTF-8 Plain Text
Language : Russian
Default : No
Forced : No

Text #2
ID : 9
Format : UTF-8
Codec ID : S_TEXT/UTF8
Codec ID/Info : UTF-8 Plain Text
Language : English
Default : No
Forced : No

Menu
00:00:00.000 : en:Main Titles
00:01:58.284 : en:In the Beginning
00:09:50.089 : en:Charlie's Worst Fear
00:13:13.209 : en:Growing Up
00:17:45.147 : en:Hank
00:24:56.953 : en:Irene
00:34:29.942 : en:The E.P.a.
00:36:57.215 : en:Danger
00:41:04.545 : en:Tango Man
00:49:30.092 : en:Manhunt
00:54:41.569 : en:No Money
00:59:14.259 : en:Table Manners
01:05:25.421 : en:Traveling Companions
01:14:40.017 : en:problem Control
01:19:34.311 : en:The Boys Get Involved
01:25:06.893 : en:Irene Confesses
01:30:55.700 : en:Charlie Gets Mad
01:40:29.940 : en:Saving Irene
01:48:53.902 : en:End Titles
01:55:52.862 : en:pop's Thumb


 

Вложения

  • 60,2 KB Просмотры: 0
    Личеров 0
    Сидеров 0
    Файлов 1
    Объем 11,9 GB

Привет!

Мы группа людей которые решили помочь другим в решении их проблем, а так же пользователям с поиском самых свежих и качественных инфопродуктов. За 4 с небольшим месяца мы создали этот форум на который заходят ежедневно тысячи человек и посещаемость постоянно растёт. Мы создали панель лицензирования для защиты PHP скриптов от воровства и SEO панель для мониторинга наших сайтов и выбора верной стратегии их развития. Мы надеемся что то что мы создали пригодится Вам и возможно Вы поможете нам развиваться и совершенствоваться вместе с Вами.

Статистика форума

Темы
406.656
Сообщения
465.106
Пользователи
84.671
Новый пользователь
ivpav52

Приложения форума для iOS и Android


У ркн там нет власти ;)
Приватные разговоры
Помощь Пользователи
    Вы не присоединились ни к одной комнате.