За последнюю неделю опубликовано 33 новых материалов.
Инструкция новичку Путеводитель по форуму Прокси для Telegram Показать подсказки , это бомба!

Скачать Я любить тебя буду, можно? (2017) WEB-DLRip-AVC от ExKinoRay | iTunes бесплатно через торрент

  • Поучаствуй (в качестве покупателя) в любых пяти совместных покупках (кроме завершённых и "Моментальных") и получи группу "Новичок" навсегда -> ссылка на раздел
  • Получай до 480 рублей за каждого приглашенного пользователя!
    представляем Вам очередное расширение партнерской программы, подробности описаны тут -> ссылка
  • 90% материалов доступно к скачиванию после простой регистрации!
    Если же ты хочешь скачивать материалы без требования оставлять отзывы то получи группу "Новичок", 10 способов повышения описаны тут -> ссылка
  • К сожалению количество битых ссылок растет и мы уже не можем их оперативно восстанавливать поэтому просим помощи у каждого нашего пользователя.
    С сегодняшнего дня, за каждую восстановленную ссылку мы заплатим Вам.
    Подробнее тут -> ссылка
  • Перенесем твои заслуги с другого ресурса!
    Мы понимаем как сложно прокачивать аккаунты на форумах, вроде раскачал аккаунт, а тут появляется ресурс в 100 раз круче но тоже с системой прокачки и снова качать аккаунт...
    Предлагаем вам перенести Ваши заслуги на другом подобном ресурсе к нам.
    Подробности описаны тут -> ссылка
  • Вы можете получать по 2.5% с каждой покупки и продажи на маркете! Подробности в теме Партнёрская программа
Если Вы не хотите скачивать, Вы всегда можетепосмотретьонлайн, просто нажмите кнопку ниже :

Открыть плеер

Torrent_Bot

Торрент-Бот
Бот форума
4 Окт 2016
81
189
20

Информация о фильме
Оригинальное название: Я любить тебя буду, можно?
Год выпуска: 2017
Жанр:мелодрама
Режиссер: Мария Ефремова
В ролях: Анатолий Белый, Мария Ефремова, Андрей Чадов, Алёна Яковлева, Мария Берсенева, Михаил Полицеймако, Елена Захарова, Малена Маяковская, Дмитрий Малашенко, Сергей Канаев

Описание:
Вадим и Катя давно живут вместе, но не смотря на внешнее благополучие их пары, в глубине души девушку не устраивает, что любимый не спешит официально оформить отношения. Все подруги давно пошли под венец, и на очередном девичнике Катя знакомится с журналистом Сергеем. Он сразу влюбляется в Катю и настойчиво начинает ухаживать за героиней, но даже признание в любви не смогло растопить ее сердце. Вадим же продолжает избегать любых разговоров о свадьбе. Катя устает ждать и уходит от отношений, которые ее больше не устраивают. Сергею кажется, что он обретает шанс стать ближе к возлюбленной, но Катя уходит не к нему... Вадим же получает повод задуматься и осознать насколько дорога и важна для него Катя. Поймут ли герои как легко потерять и как сложно вернуть доверие и любовь?..



Страна: Россия
Студия: Северное сияние
Продолжительность: 00:54:30
Перевод: Не требуется


Файл
Формат: MKV
Качество: WEB-DLRip-AVC
Видео: AVC, 1024x554 (1.85:1), 1645 kbps, 24.000 fps, 0,121 bpp
Аудио: 48 kHz, AC3, 5.1, 384 Kbps | RUS |

MI
General
Unique ID : 188235974962351513651493415670258258255 (0x8D9CEE19A9D24E3A9E643D2AF146D14F)
Complete name : D:Ya.Lubit.Tebya.Budu.Mogno.2017.O.WEB-DLRip.AVC.ExKinoRay.mkv
Format : Matroska
Format version : Version 2
File size : 791 MiB
Duration : 54 min
Overall bit rate : 2 028 kb/s
Movie name : Я любить тебя буду, можно? (2017) from ExKinoRay
Encoded date : UTC 2017-06-28 16:04:35
Writing application : mkvmerge v5.6.0 ('Kenya Kane') built on May 27 2012 16:44:04
Writing library : libebml v1.2.3 + libmatroska v1.3.0

Video
ID : 1
Format : AVC
Format/Info : Advanced Video Codec
Format profile : [email protected]
Format settings, CABAC : Yes
Format settings, ReFrames : 12 frames
Codec ID : V_MPEG4/ISO/AVC
Duration : 54 min
Bit rate : 1 645 kb/s
Width : 1 024 pixels
Height : 554 pixels
Display aspect ratio : 1.85:1
Frame rate mode : Constant
Frame rate : 24.000 FPS
Color space : YUV
Chroma subsampling : 4:2:0
Bit depth : 8 bits
Scan type : Progressive
Bits/(Pixel*Frame) : 0.121
Stream size : 625 MiB (79%)
Title : Enigma
Writing library : x264 core 144 r2525 40bb568
Encoding settings : cabac=1 / ref=12 / deblock=1:-2:-2 / analyse=0x3:0x113 / me=umh / subme=10 / psy=1 / psy_rd=1.05:0.10 / mixed_ref=1 / me_range=32 / chroma_me=1 / trellis=2 / 8x8dct=1 / cqm=0 / deadzone=21,11 / fast_pskip=1 / chroma_qp_offset=-3 / threads=12 / lookahead_threads=3 / sliced_threads=0 / nr=0 / decimate=0 / interlaced=0 / bluray_compat=0 / constrained_intra=0 / bframes=10 / b_pyramid=2 / b_adapt=2 / b_bias=0 / direct=3 / weightb=1 / open_gop=0 / weightp=2 / keyint=240 / keyint_min=24 / scenecut=40 / intra_refresh=0 / rc_lookahead=40 / rc=2pass / mbtree=0 / bitrate=1645 / ratetol=1.0 / qcomp=0.60 / qpmin=0 / qpmax=51 / qpstep=4 / cplxblur=20.0 / qblur=0.5 / vbv_maxrate=50000 / vbv_bufsize=62500 / nal_hrd=none / filler=0 / ip_ratio=1.40 / pb_ratio=1.30 / aq=1:1.00
Default : Yes
Forced : No
Color range : Limited
Color primaries : BT.709
Transfer characteristics : BT.709
Matrix coefficients : BT.709

Audio
ID : 2
Format : AC-3
Format/Info : Audio Coding 3
Mode extension : CM (complete main)
Format settings, Endianness : Big
Codec ID : A_AC3
Duration : 54 min
Bit rate mode : Constant
Bit rate : 384 kb/s
Channel(s) : 6 channels
Channel positions : Front: L C R, Side: L R, LFE
Sampling rate : 48.0 kHz
Frame rate : 31.250 FPS (1536 spf)
Compression mode : Lossy
Stream size : 150 MiB (19%)
Title : iTunes
Language : Russian
Default : Yes
Forced : No

Menu
00:00:00.000 : en:Глава 1
00:04:49.000 : en:Глава 2
00:11:28.708 : en:Глава 3
00:14:18.999 : en:Глава 4
00:19:00.832 : en:Глава 5
00:23:51.707 : en:Глава 6
00:28:16.498 : en:Глава 7
00:33:50.123 : en:Глава 8
00:39:20.956 : en:Глава 9
00:44:10.289 : en:Глава 10



Релиз от:

Автор релиза:
 

Вложения

  • 16,5 KB Просмотры: 0
    Личеров 0
    Сидеров 0
    Файлов 1
    Объем 790,9 MB

Привет!

Мы группа людей которые решили помочь другим в решении их проблем, а так же пользователям с поиском самых свежих и качественных инфопродуктов. За 4 с небольшим месяца мы создали этот форум на который заходят ежедневно тысячи человек и посещаемость постоянно растёт. Мы создали панель лицензирования для защиты PHP скриптов от воровства и SEO панель для мониторинга наших сайтов и выбора верной стратегии их развития. Мы надеемся что то что мы создали пригодится Вам и возможно Вы поможете нам развиваться и совершенствоваться вместе с Вами.

Статистика форума

Темы
413.000
Сообщения
472.337
Пользователи
93.392
Новый пользователь
shalu

Приложения форума для iOS и Android


У ркн там нет власти ;)
Приватные разговоры
Помощь Пользователи
    Вы не присоединились ни к одной комнате.