За последнюю неделю опубликовано 63 новых материалов.
Инструкция новичку Путеводитель по форуму Прокси для Telegram Показать подсказки , это бомба!

Скачать Я иду искать / Ready or Not (2019) BDRip-AVC от ExKinoRay | Есарев бесплатно через торрент

  • Поучаствуй (в качестве покупателя) в любых пяти совместных покупках (кроме завершённых и "Моментальных") и получи группу "Новичок" навсегда -> ссылка на раздел
  • Получай до 480 рублей за каждого приглашенного пользователя!
    представляем Вам очередное расширение партнерской программы, подробности описаны тут -> ссылка
  • 90% материалов доступно к скачиванию после простой регистрации!
    Если же ты хочешь скачивать материалы без требования оставлять отзывы то получи группу "Новичок", 10 способов повышения описаны тут -> ссылка
  • К сожалению количество битых ссылок растет и мы уже не можем их оперативно восстанавливать поэтому просим помощи у каждого нашего пользователя.
    С сегодняшнего дня, за каждую восстановленную ссылку мы заплатим Вам.
    Подробнее тут -> ссылка
  • Перенесем твои заслуги с другого ресурса!
    Мы понимаем как сложно прокачивать аккаунты на форумах, вроде раскачал аккаунт, а тут появляется ресурс в 100 раз круче но тоже с системой прокачки и снова качать аккаунт...
    Предлагаем вам перенести Ваши заслуги на другом подобном ресурсе к нам.
    Подробности описаны тут -> ссылка
  • Вы можете получать по 2.5% с каждой покупки и продажи на маркете! Подробности в теме Партнёрская программа
Если Вы не хотите скачивать, Вы всегда можетепосмотретьонлайн, просто нажмите кнопку ниже :

Открыть плеер

Torrent_Bot

Торрент-Бот
Бот форума
4 Окт 2016
92
160
20




Название: Я иду искать
Оригинальное название: Ready or Not
Год выпуска: 2019
Жанр: Ужасы, триллер, комедия, детектив
Режиссер: Мэттью Беттинелли, Тайлер Джиллетт
В ролях: Самара Уивинг, Адам Броди, Марк О`Брайэн, Генри Черни, Энди МакДауэлл, Мелани Скрофано, Кристиан Бруун, Никки Гуаданьи, Элиз Левеске, Джон Ралстон, Лиам Макдональд, Этан Таварес, Хеннеки Талбот, Даниэла Барбоза, Чейз Черчилль, Эндрю Энтони, Элана Дункельман


Описание: Юная невеста - теперь часть семьи своего новоиспеченного мужа, богатого, но эксцентричного рода, чтящего вековые традиции. Но кто бы мог подумать, что знакомство с родителями супруга превратится в смертельную игру, в которой все борются не на жизнь, а на смерть.



Страна: Канада, США
Студия: Mythology Entertainment, Vinson Films
Продолжительность: 01:35:22
Перевод: Авторский (закадровый) | Дмитрий Есарев


Формат: MKV
Качество: BDRip-AVC
Видео: MPEG-4 AVC, 1024x428 (2.40:1), 23.976 fps, 1750 Kbps, 0.167 bit/pixel
Аудио : 48 kHz, AC3, 5.1, 448 Kbps | Есарев | RUS |
Субтитры: Русские (Forced, full), английские

ОтчетМедиаИнфо
x264 [info]: frame I:1078 Avg QP:12.70 size: 69642
x264 [info]: frame P:30073 Avg QP:16.66 size: 19582
x264 [info]: frame B:106057 Avg QP:19.06 size: 5548
x264 [info]: consecutive B-frames: 2.2% 2.9% 9.1% 21.2% 19.0% 29.7% 7.0% 3.6% 1.9% 1.2% 0.9% 0.6% 0.6%
--------------------------------------------------------------

General
Unique ID : 242833560314888763859157116000290739479 (0xB6B00AE354264796A8CE55CDB5481517)
Complete name : F:Ready.or.Not.2019.AVO.BDRip.AVC.ExKinoRay.mkv
Format : Matroska
Format version : Version 2
File size : 1.47 GiB
Duration : 1 h 35 min
Overall bit rate : 2 201 kb/s
Movie name : Ready or Not 2019 from ExKinoRay
Encoded date : UTC 2020-06-08 00:04:46
Writing application : mkvmerge v5.6.0 ('Kenya Kane') built on May 27 2012 16:44:04
Writing library : libebml v1.2.3 + libmatroska v1.3.0
Attachments : poster.jpg

Video
ID : 1
Format : AVC
Format/Info : Advanced Video Codec
Format profile : [email protected]
Format settings, CABAC : Yes
Format settings, ReFrames : 12 frames
Codec ID : V_MPEG4/ISO/AVC
Duration : 1 h 35 min
Bit rate : 1 750 kb/s
Width : 1 024 pixels
Height : 428 pixels
Display aspect ratio : 2.40:1
Frame rate mode : Constant
Frame rate : 23.976 (23976/1000) FPS
Color space : YUV
Chroma subsampling : 4:2:0
Bit depth : 8 bits
Scan type : Progressive
Bits/(Pixel*Frame) : 0.167
Stream size : 1.14 GiB (78%)
Title : Enigma
Writing library : x264 core 152 r2851 ba24899
Encoding settings : cabac=1 / ref=12 / deblock=1:-2:-2 / analyse=0x3:0x113 / me=umh / subme=10 / psy=1 / psy_rd=1.02:0.06 / mixed_ref=1 / me_range=32 / chroma_me=1 / trellis=2 / 8x8dct=1 / cqm=0 / deadzone=21,11 / fast_pskip=0 / chroma_qp_offset=-3 / threads=12 / lookahead_threads=3 / sliced_threads=0 / nr=0 / decimate=0 / interlaced=0 / bluray_compat=0 / constrained_intra=0 / bframes=12 / b_pyramid=2 / b_adapt=2 / b_bias=0 / direct=3 / weightb=1 / open_gop=0 / weightp=2 / keyint=240 / keyint_min=23 / scenecut=40 / intra_refresh=0 / rc=2pass / mbtree=0 / bitrate=1750 / ratetol=1.0 / qcomp=0.60 / qpmin=0 / qpmax=51 / qpstep=4 / cplxblur=20.0 / qblur=0.5 / ip_ratio=1.40 / pb_ratio=1.30 / aq=2:0.90
Language : English
Default : Yes
Forced : No
Color range : Limited
Color primaries : BT.709
Transfer characteristics : BT.709
Matrix coefficients : BT.709

Audio
ID : 2
Format : AC-3
Format/Info : Audio Coding 3
Mode extension : CM (complete main)
Format settings, Endianness : Big
Codec ID : A_AC3
Duration : 1 h 35 min
Bit rate mode : Constant
Bit rate : 448 kb/s
Channel(s) : 6 channels
Channel positions : Front: L C R, Side: L R, LFE
Sampling rate : 48.0 kHz
Frame rate : 31.250 FPS (1536 spf)
Compression mode : Lossy
Stream size : 306 MiB (20%)
Title : AVO (Esarev)
Language : Russian
Default : Yes
Forced : No

Text #1
ID : 3
Format : UTF-8
Codec ID : S_TEXT/UTF8
Codec ID/Info : UTF-8 Plain Text
Title : Forced
Language : Russian
Default : Yes
Forced : No

Text #2
ID : 4
Format : UTF-8
Codec ID : S_TEXT/UTF8
Codec ID/Info : UTF-8 Plain Text
Title : Full
Language : Russian
Default : No
Forced : No

Text #3
ID : 5
Format : UTF-8
Codec ID : S_TEXT/UTF8
Codec ID/Info : UTF-8 Plain Text
Language : English
Default : No
Forced : No

Menu
00:00:00.000 : en:Chapter 01
00:03:11.983 : en:Chapter 02
00:06:49.534 : en:Chapter 03
00:09:27.441 : en:Chapter 04
00:12:26.787 : en:Chapter 05
00:16:24.149 : en:Chapter 06
00:21:58.275 : en:Chapter 07
00:25:21.311 : en:Chapter 08
00:28:00.261 : en:Chapter 09
00:31:21.921 : en:Chapter 10
00:34:46.459 : en:Chapter 11
00:36:08.624 : en:Chapter 12
00:38:23.676 : en:Chapter 13
00:41:55.930 : en:Chapter 14
00:45:40.362 : en:Chapter 15
00:48:02.713 : en:Chapter 16
00:51:50.440 : en:Chapter 17
00:54:05.367 : en:Chapter 18
00:57:04.963 : en:Chapter 19
00:59:52.714 : en:Chapter 20
01:01:37.902 : en:Chapter 21
01:04:01.671 : en:Chapter 22
01:07:31.505 : en:Chapter 23
01:09:25.494 : en:Chapter 24
01:11:48.053 : en:Chapter 25
01:15:59.346 : en:Chapter 26
01:18:34.584 : en:Chapter 27
01:21:39.644 : en:Chapter 28
01:24:07.292 : en:Chapter 29
01:27:48.012 : en:Chapter 30
01:29:22.315 : en:Chapter 31
01:30:48.860 : en:Chapter 32





Релиз от:

Автор релиза:
 

Вложения

  • 15,6 KB Просмотры: 0
    Личеров 0
    Сидеров 0
    Файлов 1
    Объем 1,5 GB

Привет!

Мы группа людей которые решили помочь другим в решении их проблем, а так же пользователям с поиском самых свежих и качественных инфопродуктов. За 4 с небольшим месяца мы создали этот форум на который заходят ежедневно тысячи человек и посещаемость постоянно растёт. Мы создали панель лицензирования для защиты PHP скриптов от воровства и SEO панель для мониторинга наших сайтов и выбора верной стратегии их развития. Мы надеемся что то что мы создали пригодится Вам и возможно Вы поможете нам развиваться и совершенствоваться вместе с Вами.

Статистика форума

Темы
406.656
Сообщения
465.106
Пользователи
84.674
Новый пользователь
Юрий 1990

Приложения форума для iOS и Android


У ркн там нет власти ;)
Приватные разговоры
Помощь Пользователи
    Вы не присоединились ни к одной комнате.