За последнюю неделю опубликовано 101 новых материалов.
Инструкция новичку Путеводитель по форуму Прокси для Telegram Показать подсказки , это бомба!

Скачать Я и Орсон Уэллс / Me and Orson Welles (2008) ВDRip 720р | P бесплатно через торрент

  • Поучаствуй (в качестве покупателя) в любых пяти совместных покупках (кроме завершённых и "Моментальных") и получи группу "Новичок" навсегда -> ссылка на раздел
  • Получай до 480 рублей за каждого приглашенного пользователя!
    представляем Вам очередное расширение партнерской программы, подробности описаны тут -> ссылка
  • 90% материалов доступно к скачиванию после простой регистрации!
    Если же ты хочешь скачивать материалы без требования оставлять отзывы то получи группу "Новичок", 10 способов повышения описаны тут -> ссылка
  • К сожалению количество битых ссылок растет и мы уже не можем их оперативно восстанавливать поэтому просим помощи у каждого нашего пользователя.
    С сегодняшнего дня, за каждую восстановленную ссылку мы заплатим Вам.
    Подробнее тут -> ссылка
  • Перенесем твои заслуги с другого ресурса!
    Мы понимаем как сложно прокачивать аккаунты на форумах, вроде раскачал аккаунт, а тут появляется ресурс в 100 раз круче но тоже с системой прокачки и снова качать аккаунт...
    Предлагаем вам перенести Ваши заслуги на другом подобном ресурсе к нам.
    Подробности описаны тут -> ссылка
  • Вы можете получать по 2.5% с каждой покупки и продажи на маркете! Подробности в теме Партнёрская программа
Если Вы не хотите скачивать, Вы всегда можетепосмотретьонлайн, просто нажмите кнопку ниже :

Открыть плеер

Torrent_Bot

Торрент-Бот
Бот форума
4 Окт 2016
102
153
20



Я и Орсон Уэллс / Me and Orson Welles

Страна: Великобритания США Остров Мэн
Производство: CinemaNX, Detour Filmproduction, Framestore, Isle of Man Film Ltd., Fuzzy Bunny Films (I)
Год выпуска: 2008
Жанр:драма
Продолжительность: 01:54:02

Режиссер: Ричард Линклейтер
Авторы сценария: Холли Гент Палмо, Винсент Палмо мл., Роберт Каплоу

В ролях: Зак Эфрон, Кристиан МакКэй, Клэр Дэйнс, Зои Казан, Имоджен Путс, Эдди Марсан, Келли Райлли, Джеймс Таппер, Меган Мачко

Описание: Ноябрь 1937 года. Семнадцатилетний Ричард Сэмюэлс учится в школе, а выходные проводит на Манхэттэне в поисках приключений. Случайно он оказывается в театре «Меркурий», который еще не открылся, но в нем уже вовсю идут дела, которыми руководит молодой Орсон Уэллс. Режиссер берет мальчика на небольшую роль в спектакле «Юлий Цезарь». И работа с будущим постановщиком «Гражданина Кейна» навсегда меняет жизнь Ричарда...



Перевод: Профессиональный (многоголосый, закадровый) | студия «Омикрон»
Субтитры: русские, английские (SDH)


Качество: ВDRip 720р
Формат: MКV
Видео кодек: AVC
Аудио кодек: DTS
Видео: 1280x532 (2.40:1), 23.976 fps, MPEG-4 AVC ~5 642 kbps avg
Аудио №1: 48.0 kHz, Digital Theater Systems, 3/2 (L,C,R,l,r) + LFE ch, ~1510 kbps | RUS
Аудио №2: 48.0 kHz, Digital Theater Systems, 3/2 (L,C,R,l,r) + LFE ch, ~1510 kbps | ENG
Формат субтитров: UTF-8 Plain Text

Бюджет: $25 000 000
Дата премьеры (мир): 5 сентября 2008

Релиз от:

Media Info
General
Format : Matroska
Format version : Version 2
File size : 7.04 GiB
Duration : 1h 54mn
Overall bit rate : 8 838 Kbps
Movie name : Me and Orson Welles (2008)
Encoded date : UTC 2012-12-09 21:31:18
Writing application : mkvmerge v3.4.0 ('Rapunzel') built on May 15 2010 09:38:20
Writing library : libebml v0.8.0 + libmatroska v0.9.0

Video
ID : 1
Format : AVC
Format/Info : Advanced Video Codec
Format settings, CABAC : Yes
Format settings, ReFrames : 11 frames
Codec ID : V_MPEG4/ISO/AVC
Duration : 1h 54mn
Bit rate : 5 642 Kbps
Width : 1 280 pixels
Height : 532 pixels
Display aspect ratio : 2.40:1
Frame rate : 23.976 fps
Color space : YUV
Chroma subsampling : 4:2:0
Bit depth : 8 bits
Scan type : Progressive
Bits/(Pixel*Frame) : 0.346
Stream size : 4.49 GiB (64%)
Title : Me and Orson Welles (2008) - Release for HDCLUB
Writing library : x264 core 129 r2230 1cffe9f
Encoding settings : cabac=1 / ref=11 / deblock=1:-3:-3 / analyse=0x3:0x113 / me=umh / subme=10 / psy=1 / psy_rd=1.00:0.00 / mixed_ref=1 / me_range=48 / chroma_me=1 / trellis=2 / 8x8dct=1 / cqm=0 / deadzone=21,11 / fast_pskip=1 / chroma_qp_offset=-2 / threads=18 / lookahead_threads=3 / sliced_threads=0 / nr=0 / decimate=1 / interlaced=0 / bluray_compat=0 / constrained_intra=0 / bframes=9 / b_pyramid=2 / b_adapt=2 / b_bias=0 / direct=1 / weightb=1 / open_gop=0 / weightp=2 / keyint=240 / keyint_min=23 / scenecut=40 / intra_refresh=0 / rc_lookahead=40 / rc=crf / mbtree=0 / crf=17.0 / qcomp=0.60 / qpmin=0 / qpmax=69 / qpstep=4 / vbv_maxrate=50000 / vbv_bufsize=62500 / crf_max=0.0 / nal_hrd=none / ip_ratio=1.40 / pb_ratio=1.30 / aq=1:0.80
Language : English
Matrix coefficients : BT.709-5, BT.1361, IEC 61966-2-4 709, SMPTE RP177

Audio #1
ID : 2
Format : DTS
Format/Info : Digital Theater Systems
Codec ID : A_DTS
Duration : 1h 54mn
Bit rate mode : Constant
Bit rate : 1 510 Kbps
Channel(s) : 6 channels
Channel positions : Front: L C R, Side: L R, LFE
Sampling rate : 48.0 KHz
Bit depth : 16 bits
Compression mode : Lossy
Stream size : 1.20 GiB (17%)
Title : DTS 5.1 @ 1536 kbps - MVO, OMiCRON
Language : Russian

Audio #2
ID : 3
Format : DTS
Format/Info : Digital Theater Systems
Codec ID : A_DTS
Duration : 1h 54mn
Bit rate mode : Constant
Bit rate : 1 510 Kbps
Channel(s) : 6 channels
Channel positions : Front: L C R, Side: L R, LFE
Sampling rate : 48.0 KHz
Bit depth : 16 bits
Compression mode : Lossy
Stream size : 1.20 GiB (17%)
Title : DTS 5.1 @ 1536 kbps
Language : English

Text #1
ID : 4
Format : UTF-8
Codec ID : S_TEXT/UTF8
Codec ID/Info : UTF-8 Plain Text
Title : Lola_Jimenez
Language : Russian

Text #2
ID : 5
Format : UTF-8
Codec ID : S_TEXT/UTF8
Codec ID/Info : UTF-8 Plain Text
Title : SDH
Language : English

Menu
00:00:00.000 : en:00:00:00.000
00:05:49.849 : en:00:05:49.849
00:15:17.959 : en:00:15:17.959
00:23:42.963 : en:00:23:42.963
00:32:08.927 : en:00:32:08.927
00:39:48.845 : en:00:39:48.845
00:49:11.615 : en:00:49:11.615
00:59:48.835 : en:00:59:48.835
01:09:05.600 : en:01:09:05.600
01:15:56.260 : en:01:15:56.260
01:19:51.787 : en:01:19:51.787
01:23:23.207 : en:01:23:23.207
01:29:03.505 : en:01:29:03.505
01:33:59.050 : en:01:33:59.050
01:41:45.641 : en:01:41:45.641
01:47:10.424 : en:01:47:10.424
Скриншоты
 

Вложения

  • 18,7 KB Просмотры: 1
    Личеров 0
    Сидеров 0
    Файлов 1
    Объем 7 GB

Привет!

Мы группа людей которые решили помочь другим в решении их проблем, а так же пользователям с поиском самых свежих и качественных инфопродуктов. За 4 с небольшим месяца мы создали этот форум на который заходят ежедневно тысячи человек и посещаемость постоянно растёт. Мы создали панель лицензирования для защиты PHP скриптов от воровства и SEO панель для мониторинга наших сайтов и выбора верной стратегии их развития. Мы надеемся что то что мы создали пригодится Вам и возможно Вы поможете нам развиваться и совершенствоваться вместе с Вами.

Статистика форума

Темы
404.614
Сообщения
461.523
Пользователи
80.369
Новый пользователь
Карина1213

Приложения форума для iOS и Android


У ркн там нет власти ;)
Приватные разговоры
Помощь Пользователи
    Вы не присоединились ни к одной комнате.