За последнюю неделю опубликовано 53 новых материалов.
Инструкция новичку Путеводитель по форуму Прокси для Telegram Показать подсказки , это бомба!

Скачать Изгнание (2007) BDRip-AVC от MediaClub бесплатно через торрент

  • Поучаствуй (в качестве покупателя) в любых пяти совместных покупках (кроме завершённых и "Моментальных") и получи группу "Новичок" навсегда -> ссылка на раздел
  • Получай до 480 рублей за каждого приглашенного пользователя!
    представляем Вам очередное расширение партнерской программы, подробности описаны тут -> ссылка
  • 90% материалов доступно к скачиванию после простой регистрации!
    Если же ты хочешь скачивать материалы без требования оставлять отзывы то получи группу "Новичок", 10 способов повышения описаны тут -> ссылка
  • К сожалению количество битых ссылок растет и мы уже не можем их оперативно восстанавливать поэтому просим помощи у каждого нашего пользователя.
    С сегодняшнего дня, за каждую восстановленную ссылку мы заплатим Вам.
    Подробнее тут -> ссылка
  • Перенесем твои заслуги с другого ресурса!
    Мы понимаем как сложно прокачивать аккаунты на форумах, вроде раскачал аккаунт, а тут появляется ресурс в 100 раз круче но тоже с системой прокачки и снова качать аккаунт...
    Предлагаем вам перенести Ваши заслуги на другом подобном ресурсе к нам.
    Подробности описаны тут -> ссылка
  • Вы можете получать по 2.5% с каждой покупки и продажи на маркете! Подробности в теме Партнёрская программа
Если Вы не хотите скачивать, Вы всегда можетепосмотретьонлайн, просто нажмите кнопку ниже :

Открыть плеер

Torrent_Bot

Торрент-Бот
Бот форума
4 Окт 2016
91
163
20
Информация о фильме
Название: Изгнание
Год выхода: 2007
Жанр: Драма
Режиссер: Андрей Звягинцев
В ролях: Константин Лавроненко, Мария Бонневи, Александр Балуев, Максим Шибаев, Екатерина Кулкина, Елена Лядова, Андрей Шибаршин, Дмитрий Ульянов, Алексей Вертков, Ольга Лапшина, Максим Дрозд, Вячеслав Бутенко, Виталий Кищенко, Игорь Сергеев, Ярослава Николаева

О фильме:
Семья с двумя детьми — старшим сыном 10 лет и дочерью 8-9 лет — приезжает отдохнуть на малую родину отца в деревню. Ничто не предвещает необычного — просто отдых в деревне на пару недель. Но вечером, после ужина, когда дети легли спать и взрослые остались одни, мать сообщает мужу: «Я жду ребёнка. Он не твой». Напряжение, возникшее в семье, мучительное состояние Александра, сомнения и боль супругов, переданная минимальными выразительными средствами, особенно остро переживается зрителем.



Страна: Россия
Студия: Hlicotronc, ИнтерСинема, Рен-ТВ
Продолжительность: 02:37:32
Перевод: Не требуется

Файл
Кодек: h.264
Качество: BDRip-AVC
Видео: MPEG-4 AVC, 2345 Кбит/с, 1024x432, 23.976 кадр/с
Звук: Русский (AC3, 6 ch, 320 Кбит/с)
Субтитры: Нет

Семпл

О релизе
Автор релиза - Silverok, за Blu-ray спасибо crazy_gringo
Сохранены оригинальные чаптеры как на Blu-ray
MI
---[Information] [03.04.2017 23:36:25] x264 [info]: frame I:46 Avg QP:15.24 size: 84966
---[Information] [03.04.2017 23:36:25] x264 [info]: frame P:404 Avg QP:17.44 size: 25627
---[Information] [03.04.2017 23:36:25] x264 [info]: frame B:2100 Avg QP:18.19 size: 8062

General
Unique ID : 244353028284503207099248572125816718630 (0xB7D4AE71604AA8F8A98C59A2826A8526)
Complete name : D:uTorrentIzgnanie.2007.BDRip.AVC.MediaClub.mkv
Format : Matroska
Format version : Version 4 / Version 2
File size : 2.93 GiB
Duration : 2 h 37 min
Overall bit rate : 2 665 kb/s
Encoded date : UTC 2017-04-06 15:39:41 / UTC 2017-04-02T08:35:25Z
Writing application : mkvmerge v10.0.0 ('To Drown In You') 64bit
Writing library : libebml v1.3.4 + libmatroska v1.4.5 / Lavf57.7.2

Video
ID : 1
Format : AVC
Format/Info : Advanced Video Codec
Format profile : [email protected]
Format settings, CABAC : Yes
Format settings, ReFrames : 16 frames
Codec ID : V_MPEG4/ISO/AVC
Duration : 2 h 37 min
Bit rate : 2 345 kb/s
Width : 1 024 pixels
Height : 432 pixels
Display aspect ratio : 2.40:1
Frame rate mode : Constant
Frame rate : 23.976 (24000/1001) FPS
Color space : YUV
Chroma subsampling : 4:2:0
Bit depth : 8 bits
Scan type : Progressive
Bits/(Pixel*Frame) : 0.221
Stream size : 2.52 GiB (86%)
Title : BDRip by Silverok
Writing library : x264 core 148 r2708 86b7198
Encoding settings : cabac=1 / ref=16 / deblock=1:-3:-3 / analyse=0x3:0x113 / me=umh / subme=11 / psy=1 / psy_rd=1.00:0.10 / mixed_ref=1 / me_range=48 / chroma_me=1 / trellis=2 / 8x8dct=1 / cqm=0 / deadzone=21,11 / fast_pskip=1 / chroma_qp_offset=-3 / threads=12 / lookahead_threads=1 / sliced_threads=0 / nr=0 / decimate=0 / interlaced=0 / bluray_compat=0 / constrained_intra=0 / bframes=16 / b_pyramid=2 / b_adapt=1 / b_bias=0 / direct=1 / weightb=1 / open_gop=0 / weightp=2 / keyint=240 / keyint_min=24 / scenecut=40 / intra_refresh=0 / rc_lookahead=40 / rc=2pass / mbtree=1 / bitrate=2345 / ratetol=1.0 / qcomp=0.60 / qpmin=0 / qpmax=69 / qpstep=4 / cplxblur=20.0 / qblur=0.5 / vbv_maxrate=62500 / vbv_bufsize=78125 / nal_hrd=none / filler=0 / ip_ratio=1.40 / aq=1:1.00
Default : Yes
Forced : No
Color range : Limited
Color primaries : BT.709
Transfer characteristics : BT.709
Matrix coefficients : BT.709
Statistics Tags Issue : mkvmerge v10.0.0 ('To Drown In You') 64bit 2017-04-06 15:39:41 / mkvmerge v10.0.0 ('To Drown In You') 64bit 2017-04-06 15:39:41 / UTC 2017-04-02T08:35:25Z
FromStats_BitRate : 2343775
FromStats_Duration : 02:37:32.026000000
FromStats_FrameCount : 226618
FromStats_StreamSize : 2769178543

Audio
ID : 2
Format : AC-3
Format/Info : Audio Coding 3
Format settings, Endianness : Big
Codec ID : A_AC3
Duration : 2 h 37 min
Bit rate mode : Constant
Bit rate : 320 kb/s
Channel(s) : 6 channels
Channel positions : Front: L C R, Side: L R, LFE
Sampling rate : 48.0 kHz
Frame rate : 31.250 FPS (1536 spf)
Bit depth : 16 bits
Compression mode : Lossy
Delay relative to video : -5 ms
Stream size : 361 MiB (12%)
Language : Russian
Service kind : Complete Main
Default : Yes
Forced : No
Statistics Tags Issue : mkvmerge v10.0.0 ('To Drown In You') 64bit 2017-04-06 15:39:41 / mkvmerge v10.0.0 ('To Drown In You') 64bit 2017-04-06 15:39:41 / UTC 2017-04-02T08:35:25Z
FromStats_BitRate : 320000
FromStats_Duration : 02:37:32.000000000
FromStats_FrameCount : 295375
FromStats_StreamSize : 378080000

Menu
00:00:00.000 : :Chapter 1
00:10:19.994 : :Chapter 2
00:18:30.818 : :Chapter 3
00:31:34.601 : :Chapter 4
00:40:28.134 : :Chapter 5
00:47:29.805 : :Chapter 6
00:58:50.902 : :Chapter 7
01:09:05.475 : :Chapter 8
01:17:27.101 : :Chapter 9
01:30:05.734 : :Chapter 10
01:38:54.470 : :Chapter 11
01:50:17.152 : :Chapter 12
01:59:09.601 : :Chapter 13
02:12:10.589 : :Chapter 14
02:25:31.890 : :Chapter 15
02:37:30.399 : :Chapter 16
Скриншоты

Релиз от: | Silverok
 

Вложения

  • 15,7 KB Просмотры: 1
    Личеров 0
    Сидеров 0
    Файлов 1
    Объем 2,9 GB

Привет!

Мы группа людей которые решили помочь другим в решении их проблем, а так же пользователям с поиском самых свежих и качественных инфопродуктов. За 4 с небольшим месяца мы создали этот форум на который заходят ежедневно тысячи человек и посещаемость постоянно растёт. Мы создали панель лицензирования для защиты PHP скриптов от воровства и SEO панель для мониторинга наших сайтов и выбора верной стратегии их развития. Мы надеемся что то что мы создали пригодится Вам и возможно Вы поможете нам развиваться и совершенствоваться вместе с Вами.

Статистика форума

Темы
410.538
Сообщения
469.078
Пользователи
86.038
Новый пользователь
KirillKuznetsov2509

Приложения форума для iOS и Android


У ркн там нет власти ;)
Приватные разговоры
Помощь Пользователи
    Вы не присоединились ни к одной комнате.