За последнюю неделю опубликовано 63 новых материалов.
Инструкция новичку Путеводитель по форуму Прокси для Telegram Показать подсказки , это бомба!

Скачать Исходный код / Source Code (2011) BDRemux 1080p | D, P1, A бесплатно через торрент

  • Поучаствуй (в качестве покупателя) в любых пяти совместных покупках (кроме завершённых и "Моментальных") и получи группу "Новичок" навсегда -> ссылка на раздел
  • Получай до 480 рублей за каждого приглашенного пользователя!
    представляем Вам очередное расширение партнерской программы, подробности описаны тут -> ссылка
  • 90% материалов доступно к скачиванию после простой регистрации!
    Если же ты хочешь скачивать материалы без требования оставлять отзывы то получи группу "Новичок", 10 способов повышения описаны тут -> ссылка
  • К сожалению количество битых ссылок растет и мы уже не можем их оперативно восстанавливать поэтому просим помощи у каждого нашего пользователя.
    С сегодняшнего дня, за каждую восстановленную ссылку мы заплатим Вам.
    Подробнее тут -> ссылка
  • Перенесем твои заслуги с другого ресурса!
    Мы понимаем как сложно прокачивать аккаунты на форумах, вроде раскачал аккаунт, а тут появляется ресурс в 100 раз круче но тоже с системой прокачки и снова качать аккаунт...
    Предлагаем вам перенести Ваши заслуги на другом подобном ресурсе к нам.
    Подробности описаны тут -> ссылка
  • Вы можете получать по 2.5% с каждой покупки и продажи на маркете! Подробности в теме Партнёрская программа
Если Вы не хотите скачивать, Вы всегда можетепосмотретьонлайн, просто нажмите кнопку ниже :

Открыть плеер

Torrent_Bot

Торрент-Бот
Бот форума
4 Окт 2016
92
160
20



Информация о фильме
Название: Исходный код
Оригинальное название: Source Code
Год выхода: 2011
Жанр: Фантастика, боевик, триллер, драма
Режиссер: Дункан Джонс / Duncan Jones
В ролях: Джейк Джилленхол, Мишель Монахэн, Вера Фармига, Джеффри Райт, Расселл Питерс, Джеймс А. Вудс, Майкл Арден, Кас Анвар, Джо Кобден, Брент Скэгфорд, Крэйг Томас, Гордон Мастен, Сьюзэн Бэйн, Паула Жан Хиксон, Линкольн Уорд, Кайл Гейтхаус, Альберт Кван, Энн Дэй-Джонс, Клариса Бирн, Мэтт Холлэнд, Фредерик Де Гранпре, Скотт Бакула, Лаура Этвуд, Райнальд Лапьер, Сэмюэл Медоуз

О фильме:
Солдат по имени Коултер мистическим образом оказывается в теле неизвестного мужчины, погибшего в железнодорожной катастрофе. Коултер вынужден переживать чужую смерть снова и снова до тех пор, пока не поймет, кто — зачинщик катастрофы.



Страна: США, Канада
Студия: Summit Entertainment, Vendome Pictures, StudioCanal
Продолжительность: 01:33:13
Перевод: 1: Профессиональный (дублированный)
2: Авторский (одноголосый закадровый) Андрей Гаврилов
3: Профессиональный (одноголосый закадровый) Александр Дасевич
4: Авторский (одноголосый закадровый) Вячеслав Замез (Zamez)
5: Украинский (дублированный)
6: Украинский (многоголосый) 1+1

Файл
Кодек: H.264
Качество: BDRemux 1080p
Видео: MPEG-4/ISO/AVC, 1920x1080 (16:9), 27884 Kbps, 23.976 fps, 0.550 bit/pixel.
Звук:
Аудио 1: AC3, 3/2 (L,C,R,l,r) + LFE ch, 48 kHz, ~640 kbps |Дубляж|
Аудио 2: DTS-HD MA 5.1, 48 kHz, 3840 kbps, 24-bit (DTS, 5.1, 48 kHz, 1509 kbps, 24-bit) |AVO Гаврилов|
Аудио 3: DTS-HD MA 5.1, 48 kHz, 3840 kbps, 24-bit (DTS, 5.1, 48 kHz, 1509 kbps, 24-bit) |VO Дасевич|
Аудио 4: DTS-HD MA 5.1, 48 kHz, 3395 kbps, 24-bit (DTS, 5.1, 48 kHz, 1509 kbps, 24-bit) |AVO Zamez|
Аудио 5: DTS-HD MA 5.1, 48 kHz, 2250 kbps, 24-bit (DTS, 5.1, 48 kHz, 1509 kbps, 24-bit) |Дубляж|
Аудио 6: AC3, 2/0 (L,R) ch, 48 kHz, ~192 kbps |MVO 1+1|
Аудио 7: DTS-HD MA 5.1, 48 kHz, 3840 kbps, 24-bit (DTS, 5.1, 48 kHz, 1509 kbps, 24-bit) |Original|
Аудио 8: AC3, 2/0 (L,R) ch, 48 kHz, ~192 kbps |Commentary with Director Duncan Jones, Actor Jake Gyllenhaal, and Writer Ben Ripley|
Субтитры: Русские (Voronine + Voronine SDH), Английские (Full + SDH)

Скриншоты

MediaInfo
General
Unique ID : 246566557943312565135061783157205171560 (0xB97EFDE18AD0E111B01E4805EF2CFD68)
Complete name : Source Code (2011) BDRemux.mkv
Format : Matroska
Format version : Version 4 / Version 2
File size : 29.9 GiB
Duration : 1h 33mn
Overall bit rate mode : Variable
Overall bit rate : 46.0 Mbps
Movie name : Исходный код / Source Code (2011)
Encoded date : UTC 2015-06-08 09:17:40
Writing application : mkvmerge v7.8.0 ('River Man') 64bit built on Mar 27 2015 16:31:37
Writing library : libebml v1.3.1 + libmatroska v1.4.2

Video
ID : 1
Format : AVC
Format/Info : Advanced Video Codec
Format profile : [email protected]
Format settings, CABAC : Yes
Format settings, ReFrames : 2 frames
Format settings, GOP : M=1, N=10
Codec ID : V_MPEG4/ISO/AVC
Duration : 1h 33mn
Bit rate mode : Variable
Bit rate : 27.9 Mbps
Width : 1 920 pixels
Height : 1 080 pixels
Display aspect ratio : 16:9
Frame rate mode : Constant
Frame rate : 23.976 (24000/1001) fps
Color space : YUV
Chroma subsampling : 4:2:0
Bit depth : 8 bits
Scan type : Progressive
Bits/(Pixel*Frame) : 0.561
Stream size : 18.2 GiB (61%)
Title : Source Code
Language : English
Default : Yes
Forced : No

Audio #1
ID : 2
Format : AC-3
Format/Info : Audio Coding 3
Mode extension : CM (complete main)
Format settings, Endianness : Big
Codec ID : A_AC3
Duration : 1h 33mn
Bit rate mode : Constant
Bit rate : 640 Kbps
Channel(s) : 6 channels
Channel positions : Front: L C R, Side: L R, LFE
Sampling rate : 48.0 KHz
Frame rate : 31.250 fps (1536 spf)
Compression mode : Lossy
Stream size : 427 MiB (1%)
Title : Дубляж
Language : Russian
Default : Yes
Forced : No

Audio #2
ID : 3
Format : DTS
Format/Info : Digital Theater Systems
Format profile : MA / Core
Mode : 16
Format settings, Endianness : Big
Codec ID : A_DTS
Duration : 1h 33mn
Bit rate mode : Variable / Constant
Bit rate : 3 840 Kbps / 1 509 Kbps
Channel(s) : 6 channels
Channel positions : Front: L C R, Side: L R, LFE
Sampling rate : 48.0 KHz
Frame rate : 93.750 fps (512 spf)
Bit depth : 24 bits
Compression mode : Lossless / Lossy
Delay relative to video : 21ms
Stream size : 2.48 GiB (8%)
Title : AVO. А. Гаврилов
Language : Russian
Default : No
Forced : No

Audio #3
ID : 4
Format : DTS
Format/Info : Digital Theater Systems
Format profile : MA / Core
Mode : 16
Format settings, Endianness : Big
Codec ID : A_DTS
Duration : 1h 33mn
Bit rate mode : Variable / Constant
Bit rate : 3 840 Kbps / 1 509 Kbps
Channel(s) : 6 channels
Channel positions : Front: L C R, Side: L R, LFE
Sampling rate : 48.0 KHz
Frame rate : 93.750 fps (512 spf)
Bit depth : 24 bits
Compression mode : Lossless / Lossy
Stream size : 2.48 GiB (8%)
Title : VO. А. Дасевич
Language : Russian
Default : No
Forced : No

Audio #4
ID : 5
Format : DTS
Format/Info : Digital Theater Systems
Format profile : MA / Core
Mode : 16
Format settings, Endianness : Big
Codec ID : A_DTS
Duration : 1h 33mn
Bit rate mode : Variable / Constant
Bit rate : 3 394 Kbps / 1 509 Kbps
Channel(s) : 6 channels
Channel positions : Front: L C R, Side: L R, LFE
Sampling rate : 48.0 KHz
Frame rate : 93.750 fps (512 spf)
Bit depth : 24 bits
Compression mode : Lossless / Lossy
Stream size : 2.21 GiB (7%)
Title : VO. Zamez
Language : Russian
Default : No
Forced : No

Audio #5
ID : 6
Format : DTS
Format/Info : Digital Theater Systems
Format profile : MA / Core
Mode : 16
Format settings, Endianness : Big
Codec ID : A_DTS
Duration : 1h 33mn
Bit rate mode : Variable / Constant
Bit rate : 2 249 Kbps / 1 509 Kbps
Channel(s) : 6 channels
Channel positions : Front: L C R, Side: L R, LFE
Sampling rate : 48.0 KHz
Frame rate : 93.750 fps (512 spf)
Bit depth : 16 bits
Compression mode : Lossless / Lossy
Stream size : 1.46 GiB (5%)
Title : Дубляж
Language : Ukrainian
Default : No
Forced : No

Audio #6
ID : 7
Format : AC-3
Format/Info : Audio Coding 3
Mode extension : CM (complete main)
Format settings, Endianness : Big
Codec ID : A_AC3
Duration : 1h 33mn
Bit rate mode : Constant
Bit rate : 192 Kbps
Channel(s) : 2 channels
Channel positions : Front: L R
Sampling rate : 48.0 KHz
Frame rate : 31.250 fps (1536 spf)
Compression mode : Lossy
Stream size : 128 MiB (0%)
Title : MVO. 1+1
Language : Ukrainian
Default : No
Forced : No

Audio #7
ID : 8
Format : DTS
Format/Info : Digital Theater Systems
Format profile : MA / Core
Mode : 16
Format settings, Endianness : Big
Codec ID : A_DTS
Duration : 1h 33mn
Bit rate mode : Variable / Constant
Bit rate : 3 840 Kbps / 1 509 Kbps
Channel(s) : 6 channels
Channel positions : Front: L C R, Side: L R, LFE
Sampling rate : 48.0 KHz
Frame rate : 93.750 fps (512 spf)
Bit depth : 24 bits
Compression mode : Lossless / Lossy
Stream size : 2.46 GiB (8%)
Title : Original
Language : English
Default : No
Forced : No

Audio #8
ID : 9
Format : AC-3
Format/Info : Audio Coding 3
Format profile : Dolby Digital
Mode extension : CM (complete main)
Format settings, Endianness : Big
Codec ID : A_AC3
Duration : 1h 33mn
Bit rate mode : Constant
Bit rate : 192 Kbps
Channel(s) : 2 channels
Channel positions : Front: L R
Sampling rate : 48.0 KHz
Frame rate : 31.250 fps (1536 spf)
Compression mode : Lossy
Stream size : 128 MiB (0%)
Title : Commentary with Director Duncan Jones, Actor Jake Gyllenhaal, and Writer Ben Ripley
Language : English
Default : No
Forced : No

Text #1
ID : 10
Format : UTF-8
Codec ID : S_TEXT/UTF8
Codec ID/Info : UTF-8 Plain Text
Duration : 1h 25mn
Bit rate : 101 bps
Count of elements : 1153
Stream size : 63.5 KiB (0%)
Title : Voronine
Language : Russian
Default : No
Forced : No

Text #2
ID : 11
Format : UTF-8
Codec ID : S_TEXT/UTF8
Codec ID/Info : UTF-8 Plain Text
Duration : 1h 25mn
Bit rate : 106 bps
Count of elements : 1207
Stream size : 66.6 KiB (0%)
Title : Voronine, SDH
Language : Russian
Default : No
Forced : No

Text #3
ID : 12
Format : UTF-8
Codec ID : S_TEXT/UTF8
Codec ID/Info : UTF-8 Plain Text
Duration : 1h 24mn
Bit rate : 62 bps
Count of elements : 1165
Stream size : 38.6 KiB (0%)
Title : Full
Language : English
Default : No
Forced : No

Text #4
ID : 13
Format : UTF-8
Codec ID : S_TEXT/UTF8
Codec ID/Info : UTF-8 Plain Text
Duration : 1h 24mn
Bit rate : 65 bps
Count of elements : 1227
Stream size : 40.4 KiB (0%)
Title : SDH
Language : English
Default : No
Forced : No

Menu
00:00:00.000 : :Chapter 01
00:06:52.870 : :Chapter 02
00:11:03.663 : :Chapter 03
00:17:20.038 : :Chapter 04
00:21:06.556 : :Chapter 05
00:28:36.797 : :Chapter 06
00:31:50.364 : :Chapter 07
00:36:19.885 : :Chapter 08
00:41:35.742 : :Chapter 09
00:47:21.838 : :Chapter 10
00:52:30.188 : :Chapter 11
00:54:32.101 : :Chapter 12
00:58:01.226 : :Chapter 13
01:03:02.320 : :Chapter 14
01:09:39.550 : :Chapter 15
01:15:12.046 : :Chapter 16
01:21:49.654 : :Chapter 17
01:24:41.117 : :Chapter 18
01:33:12.336 : :Chapter 19
 

Вложения

  • 75,8 KB Просмотры: 0
    Личеров 0
    Сидеров 0
    Файлов 1
    Объем 29,9 GB

Привет!

Мы группа людей которые решили помочь другим в решении их проблем, а так же пользователям с поиском самых свежих и качественных инфопродуктов. За 4 с небольшим месяца мы создали этот форум на который заходят ежедневно тысячи человек и посещаемость постоянно растёт. Мы создали панель лицензирования для защиты PHP скриптов от воровства и SEO панель для мониторинга наших сайтов и выбора верной стратегии их развития. Мы надеемся что то что мы создали пригодится Вам и возможно Вы поможете нам развиваться и совершенствоваться вместе с Вами.

Статистика форума

Темы
406.656
Сообщения
465.107
Пользователи
84.677
Новый пользователь
maxim_nik33

Приложения форума для iOS и Android


У ркн там нет власти ;)
Приватные разговоры
Помощь Пользователи
    Вы не присоединились ни к одной комнате.