За последнюю неделю опубликовано 171 новых материалов.
Инструкция новичку Путеводитель по форуму Прокси для Telegram Показать подсказки , это бомба!

Скачать Искусственный отбор / Triage X [S01 + OVA] (2015) BDRip от Deadmauvlad | Без Цензуры бесплатно через торрент

  • Поучаствуй (в качестве покупателя) в любых пяти совместных покупках (кроме завершённых и "Моментальных") и получи группу "Новичок" навсегда -> ссылка на раздел
  • Получай до 480 рублей за каждого приглашенного пользователя!
    представляем Вам очередное расширение партнерской программы, подробности описаны тут -> ссылка
  • 90% материалов доступно к скачиванию после простой регистрации!
    Если же ты хочешь скачивать материалы без требования оставлять отзывы то получи группу "Новичок", 10 способов повышения описаны тут -> ссылка
  • К сожалению количество битых ссылок растет и мы уже не можем их оперативно восстанавливать поэтому просим помощи у каждого нашего пользователя.
    С сегодняшнего дня, за каждую восстановленную ссылку мы заплатим Вам.
    Подробнее тут -> ссылка
  • Перенесем твои заслуги с другого ресурса!
    Мы понимаем как сложно прокачивать аккаунты на форумах, вроде раскачал аккаунт, а тут появляется ресурс в 100 раз круче но тоже с системой прокачки и снова качать аккаунт...
    Предлагаем вам перенести Ваши заслуги на другом подобном ресурсе к нам.
    Подробности описаны тут -> ссылка
  • Вы можете получать по 2.5% с каждой покупки и продажи на маркете! Подробности в теме Партнёрская программа

Torrent_Bot

Торрент-Бот
Бот форума
4 Окт 2016
124
96
20


Информация о фильме
Название: Искусственный отбор
Оригинальное название: Triage X
Год выхода: 2015
Жанр: гарем, приключения, сёнэн, школа, эротика, этти
Режиссер: Като Такао
Художник: Таниока Ёсио, Канэсиро Сая
В ролях: Акабанэ Кэндзи, Кондо Юй, Сато Амина, Ора Фуюка, Асано Масуми, Сирайси Рёко

О фильме: Никто не спорит, что преступность – болезнь общества, а организованная преступность - настоящая раковая опухоль. Обычные лекарства, а также биологические добавки, с которыми можно сравнить полицию, прокуратуру, органы государственной власти, на нее не действуют; нужны срочные и жесткие методы лечения, пока метастазы не расползлись по всему организму. Что ж, хирурги исправляют ошибки терапевтов – встречайте организацию народных мстителей «Черная метка»!

Не зря говорят, что медицина творит искусственный отбор, спасая тех, кто в природе давно бы умер. А вот коллеги из частной клиники доктора Мотидзуки спасают уже общество от тех, кто жить не должен, уничтожая мафиози и наркодилеров. При этом школьники-волонтеры Араси и Микото - это разъездная аптечная служба со свинцовыми пилюлями, главная сестра Саё мигом выписывает направления в морг, сексапильная Юко оперирует японской катаной, а ее подруга анестезиолог Мики избавляет от боли раз и навсегда – даже с километра! А в ваших краях такое лечение не требуется?






Страна: Япония
Студия: Xebec
Продолжительность: 11 серий x ~00:24:00
Перевод #1: Любительский (многоголосый, закадровый) Nazel & Freya (Animedia) (Сериал)
Перевод #2: Любительский (многоголосый, закадровый) Студийная Банда AD (OVA)
Возрастное ограничение: Запрещено для детей
Цензура: Нет (см.спойлер)


Файл
Формат: AVI
Кодек: XviD
Качество: BDRip [Исходники **]
Видео 720x400 (16:9), 23.976 fps, 1 659 kb/s (0.240 bit/pixel)
Аудио №1: AC-3, 48,0 КГц, 2 ch, 192 Кбит/сек, CBR | | Animedia
Аудио №2: AC-3, 48,0 КГц, 2 ch, 192 Кбит/сек, CBR | | Japan (Оригинал)
Субтитры (Russian): ass, внешние | полный перевод


Список Эпизодов
01. Preion of Hell
02. Surgical Strike
03. Midnight Guerrilla
04. Fire Game
05. Sacrifice Idol
06. Galactic on Stage
07. Chaos World
08. Closed Heart Shelter
09. Limit Break
10. How`s the Water?
11. Triage X OVA


Хронология
#1 >>>Triage X - ТВ (10 эп.), адаптация манги, 2015 ✔ (Есть в раздаче)
#2 Triage X OVA - OVA (1 эп.), адаптация манги, 2015 ✔ (Есть в раздаче)


MediaInfo
General
Complete name : [Deadmau- RAWS] Triage.X.2015.S01.OVA.Uncensored.BDRip.Deadmauvlad.Ep.01.avi
Format : AVI
Format/Info : Audio Video Interleave
File size : 348 MiB
Duration : 23 min 39 s
Overall bit rate : 2 057 kb/s
Movie name : [Deadmau- RAWS] Искусственный.отбор.2015.Uncensored.BDRip.Deadmauvlad.Серия.01
Director : Encoder by Deadmauvlad
Genre : школа, эротика, этти
Writing application : VirtualDubMod 1.5.10.3 | www.virtualdub-fr.org || (build 2550/release)
Original source form/Name : Аниме
Copyright : Encoder by Deadmauvlad
Comment : Encoder by Deadmauvlad

Video
ID : 0
Format : MPEG-4 Visual
Format profile : Advanced Simple@L5
Format settings : BVOP1 / Custom Matrix
Format settings, BVOP : 1
Format settings, QPel : No
Format settings, GMC : No warppoints
Format settings, Matrix : Custom
Codec ID : XVID
Codec ID/Hint : XviD
Duration : 23 min 39 s
Bit rate : 1 659 kb/s
Width : 720 pixels
Height : 400 pixels
Display aspect ratio : 16:9
Frame rate : 23.976 (24000/1001) FPS
Color space : YUV
Chroma subsampling : 4:2:0
Bit depth : 8 bits
Scan type : Progressive
Compression mode : Lossy
Bits/(Pixel*Frame) : 0.240
Stream size : 281 MiB (81%)
Writing library : XviD 73

Audio #1
ID : 1
Format : AC-3
Format/Info : Audio Coding 3
Commercial name : Dolby Digital
Codec ID : 2000
Duration : 23 min 39 s
Bit rate mode : Constant
Bit rate : 192 kb/s
Channel(s) : 2 channels
Channel layout : L R
Sampling rate : 48.0 kHz
Frame rate : 31.250 FPS (1536 SPF)
Bit depth : 16 bits
Compression mode : Lossy
Stream size : 32.5 MiB (9%)
Alignment : Split accross interleaves
Interleave, duration : 42 ms (1.00 video frame)
Interleave, preload duration : 500 ms


Audio #2
ID : 2
Format : AC-3
Format/Info : Audio Coding 3
Commercial name : Dolby Digital
Codec ID : 2000
Duration : 23 min 39 s
Bit rate mode : Constant
Bit rate : 192 kb/s
Channel(s) : 2 channels
Channel layout : L R
Sampling rate : 48.0 kHz
Frame rate : 31.250 FPS (1536 SPF)
Bit depth : 16 bits
Compression mode : Lossy
Stream size : 32.5 MiB (9%)
Alignment : Split accross interleaves
Interleave, duration : 42 ms (1.00 video frame)
Interleave, preload duration : 500 ms

Отсутствие Цензуры
> >БД релиз привнес нам "тему сисек Раскрыта !". Итак.. Смотрим что тут у нас. Отличия БД (слева) и ТВ Версии (справа). < <


Скриншоты:







Отсутствие цензуры в моем релизе




Обзор тут
> > https://www.sankakucomplex.com/2015/06/27/triage-x-bd-nipple-bonanza
Скриншоты

Резервные скрины
Исходники **
1. [BDMV] Triage.X.Vol.01-06. 64.5 GiB thx Neko_FeliXXX
2. [BDMV] Triage.X.OVA. 7.95 GiB thx Den4ik

Релиз / Автор рипа: >Deadmauvlad <

BD Версия Без Цензуры !!

 

Вложения

  • 22,4 KB Просмотры: 0
    Личеров 0
    Сидеров 0
    Файлов 22
    Объем 3,7 GB
Ваш e-mail не будет опубликован. Он потребуется для подтверждения Вашего поста.
Оформление текста Нажмите «Ввод», чтобы отправить ответ.

Привет!

Мы группа людей которые решили помочь другим в решении их проблем, а так же пользователям с поиском самых свежих и качественных инфопродуктов. За 4 с небольшим месяца мы создали этот форум на который заходят ежедневно тысячи человек и посещаемость постоянно растёт. Мы создали панель лицензирования для защиты PHP скриптов от воровства и SEO панель для мониторинга наших сайтов и выбора верной стратегии их развития. Мы надеемся что то что мы создали пригодится Вам и возможно Вы поможете нам развиваться и совершенствоваться вместе с Вами.

Статистика форума

Темы
380.675
Сообщения
420.280
Пользователи
50.620
Новый пользователь
Лис Юджин

Приложения форума для iOS и Android


У ркн там нет власти ;)
Приватные разговоры
Помощь Пользователи
    Вы не присоединились ни к одной комнате.