За последнюю неделю опубликовано 63 новых материалов.
Инструкция новичку Путеводитель по форуму Прокси для Telegram Показать подсказки , это бомба!

Скачать Искупление / Atone (2019) WEBRip 720p | HDRezka Studio бесплатно через торрент

  • Поучаствуй (в качестве покупателя) в любых пяти совместных покупках (кроме завершённых и "Моментальных") и получи группу "Новичок" навсегда -> ссылка на раздел
  • Получай до 480 рублей за каждого приглашенного пользователя!
    представляем Вам очередное расширение партнерской программы, подробности описаны тут -> ссылка
  • 90% материалов доступно к скачиванию после простой регистрации!
    Если же ты хочешь скачивать материалы без требования оставлять отзывы то получи группу "Новичок", 10 способов повышения описаны тут -> ссылка
  • К сожалению количество битых ссылок растет и мы уже не можем их оперативно восстанавливать поэтому просим помощи у каждого нашего пользователя.
    С сегодняшнего дня, за каждую восстановленную ссылку мы заплатим Вам.
    Подробнее тут -> ссылка
  • Перенесем твои заслуги с другого ресурса!
    Мы понимаем как сложно прокачивать аккаунты на форумах, вроде раскачал аккаунт, а тут появляется ресурс в 100 раз круче но тоже с системой прокачки и снова качать аккаунт...
    Предлагаем вам перенести Ваши заслуги на другом подобном ресурсе к нам.
    Подробности описаны тут -> ссылка
  • Вы можете получать по 2.5% с каждой покупки и продажи на маркете! Подробности в теме Партнёрская программа
Если Вы не хотите скачивать, Вы всегда можетепосмотретьонлайн, просто нажмите кнопку ниже :

Открыть плеер

Torrent_Bot

Торрент-Бот
Бот форума
4 Окт 2016
92
160
20



Информация о фильме
Название: Искупление
Оригинальное название: Atone
Год выхода: 2019
Жанр: боевик
Режиссер: Уэс Миллер
В ролях: Роберт Раслер, Коламбус Шорт, Стефен Фаррелли, Скотт Элрод, Жаклин Флеминг, Коттон Янси, Майкл Рэндолл, Аспен Кеннеди Уилсон, Кертис Никулс, Джексон Роуден

О фильме:
Лаура Бишоп — бывший солдат элитного отряда специального назначения, которая переживает не самые лучшие времена. Ей приходится в одиночку заботится о своей единственной дочери и привыкать к гражданской жизни. Когда Лаура получает новую работу, которая состоит в обеспечении безопасности огромной церкви, ничего не предвещает беды, однако ее не покидает тревожное чувство. Неожиданно церковь захватывает группа вооруженных людей в масках, а внутри, вместе с остальными заложниками, оказывается дочь главной героини...



Страна: США
Студия: Sweet Unknown Studios, Soulidifly
Продолжительность: 01:29:51
Перевод: Профессиональный многоголосый, закадровый [HDRezka Studio]

Файл
Кодек: H.264
Качество: WEBRip 720p
Видео: AVC, 1280x542 (2.35:1), 23.976 fps ~ 3015 Kbps
Звук:
AC3, 48 KHz, 2 ch ~ 256 Kb/s (русский)
AC3, 48 KHz, 6 ch ~ 384 Kb/s (английский)
Субтитры: английские
Реклама: отсутствует

MI:
General
Unique ID : 224942186527518654481859985504729890795 (0xA93A4A0E2F124A33B5A82E82B70CFFEB)
Complete name : J:wotAtone.(2019).WEB-DL.720p.HDRezka_Studio.mkv
Format : Matroska
Format version : Version 4 / Version 2
File size : 2.34 GiB
Duration : 1h 29mn
Overall bit rate : 3 731 Kbps
Movie name : «CVATVT»
Encoded date : UTC 2020-06-10 03:17:34
Writing application : mkvmerge v47.0.0 ('Black Flag') 64-bit
Writing library : Lavf58.12.100
DURATION : 01:29:51.392000000
NUMBER_OF_FRAMES : 168481
NUMBER_OF_BYTES : 258786816
_STATISTICS_WRITING_APP : mkvmerge v47.0.0 ('Black Flag') 64-bit
_STATISTICS_WRITING_DATE_UTC : 2020-06-10 03:17:34
_STATISTICS_TAGS : BPS DURATION NUMBER_OF_FRAMES NUMBER_OF_BYTES

Video
ID : 1
Format : AVC
Format/Info : Advanced Video Codec
Format profile : [email protected]
Format settings, CABAC : Yes
Format settings, ReFrames : 3 frames
Codec ID : V_MPEG4/ISO/AVC
Duration : 1h 29mn
Bit rate : 3 016 Kbps
Width : 1 280 pixels
Height : 542 pixels
Display aspect ratio : 2.35:1
Frame rate mode : Constant
Frame rate : 23.976 fps
Color space : YUV
Chroma subsampling : 4:2:0
Bit depth : 8 bits
Scan type : Progressive
Bits/(Pixel*Frame) : 0.181
Stream size : 1.89 GiB (81%)
Title : Australia (Cool Banana Films, SGT Productions)
Language : English
Default : Yes
Forced : No
DURATION : 01:29:51.428000000
NUMBER_OF_FRAMES : 129265
NUMBER_OF_BYTES : 2081316391
_STATISTICS_WRITING_APP : mkvmerge v47.0.0 ('Black Flag') 64-bit
_STATISTICS_WRITING_DATE_UTC : 2020-06-10 03:17:34
_STATISTICS_TAGS : BPS DURATION NUMBER_OF_FRAMES NUMBER_OF_BYTES

Audio #1
ID : 3
Format : AC-3
Format/Info : Audio Coding 3
Mode extension : CM (complete main)
Format settings, Endianness : Big
Codec ID : A_AC3
Duration : 1h 29mn
Bit rate mode : Constant
Bit rate : 256 Kbps
Channel(s) : 2 channels
Channel positions : Front: L R
Sampling rate : 48.0 KHz
Compression mode : Lossy
Delay relative to video : -5ms
Stream size : 165 MiB (7%)
Title : MVO (HDRezka Studio)
Language : Russian
Default : Yes
Forced : No

Audio #2
ID : 4
Format : AC-3
Format/Info : Audio Coding 3
Mode extension : CM (complete main)
Format settings, Endianness : Big
Codec ID : A_AC3
Duration : 1h 29mn
Bit rate mode : Constant
Bit rate : 384 Kbps
Channel(s) : 6 channels
Channel positions : Front: L C R, Side: L R, LFE
Sampling rate : 48.0 KHz
Compression mode : Lossy
Delay relative to video : -5ms
Stream size : 247 MiB (10%)
Title : Original
Language : English
Default : No
Forced : No
DURATION : 01:28:14.355000000
NUMBER_OF_FRAMES : 1041
NUMBER_OF_BYTES : 30707
_STATISTICS_WRITING_APP : mkvmerge v47.0.0 ('Black Flag') 64-bit
_STATISTICS_WRITING_DATE_UTC : 2020-06-10 03:17:34
_STATISTICS_TAGS : BPS DURATION NUMBER_OF_FRAMES NUMBER_OF_BYTES

Text
ID : 2
Format : UTF-8
Codec ID : S_TEXT/UTF8
Codec ID/Info : UTF-8 Plain Text
Language : English
Default : Yes
Forced : No

Menu
00:00:00.000 : en:1
00:05:54.000 : en:2
00:11:45.000 : en:3
00:17:41.000 : en:4
00:23:29.000 : en:5
00:29:21.000 : en:6
00:35:22.000 : en:7
00:41:08.000 : en:8
00:47:13.000 : en:9
00:52:30.000 : en:10
00:58:42.000 : en:11
01:04:38.000 : en:12
01:10:27.000 : en:13
01:15:55.000 : en:14
01:21:59.000 : en:15
01:28:10.000 : en:16

Скриншоты
 

Вложения

  • 12,6 KB Просмотры: 0
    Личеров 0
    Сидеров 0
    Файлов 1
    Объем 2,3 GB

Привет!

Мы группа людей которые решили помочь другим в решении их проблем, а так же пользователям с поиском самых свежих и качественных инфопродуктов. За 4 с небольшим месяца мы создали этот форум на который заходят ежедневно тысячи человек и посещаемость постоянно растёт. Мы создали панель лицензирования для защиты PHP скриптов от воровства и SEO панель для мониторинга наших сайтов и выбора верной стратегии их развития. Мы надеемся что то что мы создали пригодится Вам и возможно Вы поможете нам развиваться и совершенствоваться вместе с Вами.

Статистика форума

Темы
406.656
Сообщения
465.099
Пользователи
84.679
Новый пользователь
Cheza

Приложения форума для iOS и Android


У ркн там нет власти ;)
Приватные разговоры
Помощь Пользователи
    Вы не присоединились ни к одной комнате.