За последнюю неделю опубликовано 62 новых материалов.
Инструкция новичку Путеводитель по форуму Прокси для Telegram Показать подсказки , это бомба!

Скачать Интрижка / Hooking Up (2020) WEB-DLRip 720p | iTunes бесплатно через торрент

  • Поучаствуй (в качестве покупателя) в любых пяти совместных покупках (кроме завершённых и "Моментальных") и получи группу "Новичок" навсегда -> ссылка на раздел
  • Получай до 480 рублей за каждого приглашенного пользователя!
    представляем Вам очередное расширение партнерской программы, подробности описаны тут -> ссылка
  • 90% материалов доступно к скачиванию после простой регистрации!
    Если же ты хочешь скачивать материалы без требования оставлять отзывы то получи группу "Новичок", 10 способов повышения описаны тут -> ссылка
  • К сожалению количество битых ссылок растет и мы уже не можем их оперативно восстанавливать поэтому просим помощи у каждого нашего пользователя.
    С сегодняшнего дня, за каждую восстановленную ссылку мы заплатим Вам.
    Подробнее тут -> ссылка
  • Перенесем твои заслуги с другого ресурса!
    Мы понимаем как сложно прокачивать аккаунты на форумах, вроде раскачал аккаунт, а тут появляется ресурс в 100 раз круче но тоже с системой прокачки и снова качать аккаунт...
    Предлагаем вам перенести Ваши заслуги на другом подобном ресурсе к нам.
    Подробности описаны тут -> ссылка
  • Вы можете получать по 2.5% с каждой покупки и продажи на маркете! Подробности в теме Партнёрская программа
Если Вы не хотите скачивать, Вы всегда можетепосмотретьонлайн, просто нажмите кнопку ниже :

Открыть плеер

Torrent_Bot

Торрент-Бот
Бот форума
4 Окт 2016
92
160
20



Информация о фильме
Название: Интрижка
Оригинальное название: Hooking Up
Год выхода: 2020
Жанр: Драма, комедия
Режиссер: Нико Рейно
В ролях: Бриттани Сноу, Джордана Брюстер, Анна Акана, Эми Пьетц, Вивика А. Фокс, Сэм Ричардсон, Алексис Дж. Залл, Роб Моран, Дженна Лауренцо, Шон Браун

О фильме:
Бэйли и Дарла становятся участниками бессмысленной и некорректной терапии. Они должны проехать через США, чтобы воспроизвести бурную половую жизнь сексуально зависимой Дарлы. Когда становятся ясными главные причины, по которым эта парочка отправилась в путешествие, они осознают, что любовь это не только секс....




Страна: США
Продолжительность: 01:44:55
Перевод: Дублированный - iTunes

Файл
Кодек: MPEG-4 AVC
Качество: WEB-DLRip 720p
Видео: MPEG-4 AVC 3070 Кбит/сек, 1280x534
Звук:
Русский: AC3, 6 ch, 384 Кбит/сек
Английский: AC3, 6 ch, 384 Кбит/сек

Субтитры: русские, украинские, английские [вшитые отключаемые]

МедиаИнфо
General
Unique ID : 149214937955282570598152600343242887889 (0x7041C0707248A7D3AF527577E97052D1)
Complete name : G:ФільмиHooking Up (2020) WEB-DL 720p .mkv
Format : Matroska
Format version : Version 4
File size : 2.81 GiB
Duration : 1 h 44 min
Overall bit rate : 3 841 kb/s
Encoded date : UTC 2020-08-01 18:23:52
Writing application : mkvmerge v48.0.0 ('Fortress Around Your Heart') 64-bit
Writing library : libebml v1.4.0 + libmatroska v1.6.0

Video
ID : 1
Format : AVC
Format/Info : Advanced Video Codec
Format profile : [email protected]
Format settings : CABAC / 3 Ref Frames
Format settings, CABAC : Yes
Format settings, Reference frames : 3 frames
Format settings, GOP : M=1, N=25
Codec ID : V_MPEG4/ISO/AVC
Duration : 1 h 44 min
Bit rate : 3 070 kb/s
Width : 1 280 pixels
Height : 534 pixels
Display aspect ratio : 2.40:1
Frame rate mode : Constant
Frame rate : 23.976 (24000/1001) FPS
Color space : YUV
Chroma subsampling : 4:2:0
Bit depth : 8 bits
Scan type : Progressive
Bits/(Pixel*Frame) : 0.187
Stream size : 2.25 GiB (80%)
Title : USA (Yale Productions, SSS Entertainment, SSS Film Capital)
Language : English
Default : Yes
Forced : No

Audio #1
ID : 2
Format : AC-3
Format/Info : Audio Coding 3
Commercial name : Dolby Digital
Codec ID : A_AC3
Duration : 1 h 44 min
Bit rate mode : Constant
Bit rate : 384 kb/s
Channel(s) : 6 channels
Channel layout : L R C LFE Ls Rs
Sampling rate : 48.0 kHz
Frame rate : 31.250 FPS (1536 SPF)
Compression mode : Lossy
Stream size : 288 MiB (10%)
Title : Dub (iTunes)
Language : Russian
Service kind : Complete Main
Default : Yes
Forced : Yes

Audio #2
ID : 3
Format : AC-3
Format/Info : Audio Coding 3
Commercial name : Dolby Digital
Codec ID : A_AC3
Duration : 1 h 44 min
Bit rate mode : Constant
Bit rate : 384 kb/s
Channel(s) : 6 channels
Channel layout : L R C LFE Ls Rs
Sampling rate : 48.0 kHz
Frame rate : 31.250 FPS (1536 SPF)
Compression mode : Lossy
Stream size : 288 MiB (10%)
Title : Original (English)
Language : English
Service kind : Complete Main
Default : No
Forced : No

Text #1
ID : 4
Format : UTF-8
Codec ID : S_TEXT/UTF8
Codec ID/Info : UTF-8 Plain Text
Duration : 1 h 44 min
Bit rate : 86 b/s
Count of elements : 1321
Stream size : 66.2 KiB (0%)
Title : Full
Language : Russian
Default : No
Forced : No

Text #2
ID : 5
Format : UTF-8
Codec ID : S_TEXT/UTF8
Codec ID/Info : UTF-8 Plain Text
Duration : 1 h 44 min
Bit rate : 85 b/s
Count of elements : 1315
Stream size : 65.2 KiB (0%)
Title : Full
Language : Ukrainian
Default : No
Forced : No

Text #3
ID : 6
Format : UTF-8
Codec ID : S_TEXT/UTF8
Codec ID/Info : UTF-8 Plain Text
Duration : 1 h 38 min
Bit rate : 79 b/s
Count of elements : 1622
Stream size : 57.7 KiB (0%)
Title : SDH
Language : English
Default : Yes
Forced : No

Menu
00:00:00.000 : en:1
00:08:19.040 : en:2
00:14:43.841 : en:3
00:20:35.442 : en:4
00:26:09.692 : en:5
00:31:01.900 : en:6
00:37:02.010 : en:7
00:45:45.575 : en:8
00:51:51.982 : en:9
00:56:48.527 : en:10
01:07:27.874 : en:11
01:13:33.572 : en:12
01:24:13.752 : en:13
01:29:08.004 : en:14
01:39:35.797 : en:15
Скриншоты
 

Вложения

  • 15 KB Просмотры: 0
    Личеров 0
    Сидеров 0
    Файлов 1
    Объем 2,8 GB

Привет!

Мы группа людей которые решили помочь другим в решении их проблем, а так же пользователям с поиском самых свежих и качественных инфопродуктов. За 4 с небольшим месяца мы создали этот форум на который заходят ежедневно тысячи человек и посещаемость постоянно растёт. Мы создали панель лицензирования для защиты PHP скриптов от воровства и SEO панель для мониторинга наших сайтов и выбора верной стратегии их развития. Мы надеемся что то что мы создали пригодится Вам и возможно Вы поможете нам развиваться и совершенствоваться вместе с Вами.

Статистика форума

Темы
406.656
Сообщения
465.104
Пользователи
84.659
Новый пользователь
кнунун

Приложения форума для iOS и Android


У ркн там нет власти ;)
Приватные разговоры
Помощь Пользователи
    Вы не присоединились ни к одной комнате.