За последнюю неделю опубликовано 85 новых материалов.
Инструкция новичку Путеводитель по форуму Прокси для Telegram Показать подсказки , это бомба!

Скачать Интерны [S13] (2015) WEB-DLRip-AVC от ExKinoRay бесплатно через торрент

  • Поучаствуй (в качестве покупателя) в любых пяти совместных покупках (кроме завершённых и "Моментальных") и получи группу "Новичок" навсегда -> ссылка на раздел
  • Получай до 480 рублей за каждого приглашенного пользователя!
    представляем Вам очередное расширение партнерской программы, подробности описаны тут -> ссылка
  • 90% материалов доступно к скачиванию после простой регистрации!
    Если же ты хочешь скачивать материалы без требования оставлять отзывы то получи группу "Новичок", 10 способов повышения описаны тут -> ссылка
  • К сожалению количество битых ссылок растет и мы уже не можем их оперативно восстанавливать поэтому просим помощи у каждого нашего пользователя.
    С сегодняшнего дня, за каждую восстановленную ссылку мы заплатим Вам.
    Подробнее тут -> ссылка
  • Перенесем твои заслуги с другого ресурса!
    Мы понимаем как сложно прокачивать аккаунты на форумах, вроде раскачал аккаунт, а тут появляется ресурс в 100 раз круче но тоже с системой прокачки и снова качать аккаунт...
    Предлагаем вам перенести Ваши заслуги на другом подобном ресурсе к нам.
    Подробности описаны тут -> ссылка
  • Вы можете получать по 2.5% с каждой покупки и продажи на маркете! Подробности в теме Партнёрская программа
Если Вы не хотите скачивать, Вы всегда можетепосмотретьонлайн, просто нажмите кнопку ниже :

Открыть плеер

Torrent_Bot

Торрент-Бот
Бот форума
4 Окт 2016
79
194
20
Информация о фильме
Название: Интерны
Год выхода: 2015
Жанр: Комедия, ситком, медицина
Режиссер: Радда Новикова
В ролях: Иван Охлобыстин, Илья Глинников, Александр Ильин мл., Вадим Демчог, Аглая Тарасова, Юлия Назаренко, Светлана Камынина, Яна Гурьянова, Один Ланд Байрон, Татьяна Лянник, Светлана Пермякова, Азамат Мусагалиев, Александр Ляпин

О фильме:
Жизнь обычной многопрофильной больницы — сплошная рутина. Ненормированный рабочий день, тяжелая, неблагодарная работа, а также инопланетяне, электрики, спивающийся венеролог, озабоченная медсестра, больной-эксгибиционист, ручная крыса, четыре интерна, которые все время расстраивают своего руководителя... Как Иван Охлобыстин в лице доктора Быкова справится со всей этой суетой?

Выпущено: Россия, ТНТ
Продолжительность: 20 х ~ 00:26:00
Перевод: Не требуется

Файл
Кодек: х264
Качество: WEB-DLRip-AVC
Свойства видео: 1024x576 (16:9), 25 fps, x264, 1900 Kbps, 0.129 bit/pixel
Свойства аудио: 48,0 kHz, Audio Coding 3, 2 ch, ~192 kbps avg

MI
Общее
Уникальный идентификатор : 254254907908167617981009422081376643144 (0xBF47B6CCF2FBBB07A1E70372EE53E848)
Полное имя : D:ВидеоInterny.(13.sezon).2015.WEB-DLRip-AVC by Vovan366(ExKinoRay)Interny-13.(08.seriya).2015.WEB-DLRip-AVC by Vovan366(ExKinoRay).mkv
Формат : Matroska
Версия формата : Version 2
Размер файла : 371 Мбайт
Продолжительность : 24 м.
Общий поток : 2092 Кбит/сек
Дата кодирования : UTC 2015-09-17 14:33:44
Программа кодирования : mkvmerge v6.1.0 ('Old Devil') built on Mar 4 2013 09:10:42
Библиотека кодирования : libebml v1.3.0 + libmatroska v1.4.0

Видео
Идентификатор : 1
Формат : AVC
Формат/Информация : Advanced Video Codec
Профиль формата : [email protected]
Параметр CABAC формата : Да
Параметр ReFrames формата : 8 кадров
Идентификатор кодека : V_MPEG4/ISO/AVC
Продолжительность : 24 м.
Битрейт : 1900 Кбит/сек
Ширина : 1024 пикселя
Высота : 576 пикселей
Соотношение сторон : 16:9
Режим частоты кадров : Постоянный
Частота кадров : 25,000 кадров/сек
Цветовое пространство : YUV
Субдискретизация насыщенности : 4:2:0
Битовая глубина : 8 бит
Тип развёртки : Прогрессивная
Бит/(Пиксели*Кадры) : 0.129
Размер потока : 329 Мбайт (89%)
Библиотека кодирования : x264 core 130 r2273 b3065e6
Настройки программы : cabac=1 / ref=8 / deblock=1:-2:-2 / analyse=0x3:0x133 / me=umh / subme=10 / psy=1 / psy_rd=1.00:0.15 / mixed_ref=1 / me_range=32 / chroma_me=1 / trellis=2 / 8x8dct=1 / cqm=0 / deadzone=21,11 / fast_pskip=0 / chroma_qp_offset=-3 / threads=6 / lookahead_threads=1 / sliced_threads=0 / nr=0 / decimate=0 / interlaced=0 / bluray_compat=0 / constrained_intra=0 / bframes=8 / b_pyramid=2 / b_adapt=2 / b_bias=0 / direct=3 / weightb=1 / open_gop=0 / weightp=2 / keyint=250 / keyint_min=25 / scenecut=40 / intra_refresh=0 / rc=2pass / mbtree=0 / bitrate=1900 / ratetol=1.0 / qcomp=0.60 / qpmin=0 / qpmax=69 / qpstep=4 / cplxblur=20.0 / qblur=0.5 / ip_ratio=1.40 / pb_ratio=1.30 / aq=1:1.00
Default : Да
Forced : Нет

Аудио
Идентификатор : 2
Формат : AC-3
Формат/Информация : Audio Coding 3
Расширение режима : CM (complete main)
Параметр Endianness формата : Big
Идентификатор кодека : A_AC3
Продолжительность : 24 м.
Вид битрейта : Постоянный
Битрейт : 192 Кбит/сек
Каналы : 2 канала
Расположение каналов : Front: L R
Частота : 48,0 КГц
Битовая глубина : 16 бит
Метод сжатия : С потерями
Размер потока : 34,0 Мбайт (9%)
Default : Да
Forced : Нет
Скриншоты
f17c9ba7bd664683473757a7c4e6bed4.jpg1cc44a969420f2eb51c6b9c7431d52f3.jpg
2bdc46c6b392d7d7d781148a13897b0c.jpga108ba56654a61dda4813496d4a64861.jpg
3da4f693a20784ea46cbcede1f32ebe5.jpg4cc1179ddd887d8d6fd420ad2aa176b8.jpg

Релиз от: 667d57af7d8e681e291fcdf126dad5de.gif
Rip by:Vovan366
 

Вложения

  • 39,3 KB Просмотры: 1
    Личеров 0
    Сидеров 0
    Файлов 20
    Объем 7,3 GB

Привет!

Мы группа людей которые решили помочь другим в решении их проблем, а так же пользователям с поиском самых свежих и качественных инфопродуктов. За 4 с небольшим месяца мы создали этот форум на который заходят ежедневно тысячи человек и посещаемость постоянно растёт. Мы создали панель лицензирования для защиты PHP скриптов от воровства и SEO панель для мониторинга наших сайтов и выбора верной стратегии их развития. Мы надеемся что то что мы создали пригодится Вам и возможно Вы поможете нам развиваться и совершенствоваться вместе с Вами.

Статистика форума

Темы
414.370
Сообщения
475.396
Пользователи
96.561
Новый пользователь
starushka

Приложения форума для iOS и Android


У ркн там нет власти ;)
Приватные разговоры
Помощь Пользователи
    Вы не присоединились ни к одной комнате.