За последнюю неделю опубликовано 48 новых материалов.
Инструкция новичку Путеводитель по форуму Прокси для Telegram Показать подсказки , это бомба!

Скачать Интерны [S01-06, 10] (2010-2014) DVDRip, WEB-DLRip от Generalfilm | КПК бесплатно через торрент

  • Поучаствуй (в качестве покупателя) в любых пяти совместных покупках (кроме завершённых и "Моментальных") и получи группу "Новичок" навсегда -> ссылка на раздел
  • Получай до 480 рублей за каждого приглашенного пользователя!
    представляем Вам очередное расширение партнерской программы, подробности описаны тут -> ссылка
  • 90% материалов доступно к скачиванию после простой регистрации!
    Если же ты хочешь скачивать материалы без требования оставлять отзывы то получи группу "Новичок", 10 способов повышения описаны тут -> ссылка
  • К сожалению количество битых ссылок растет и мы уже не можем их оперативно восстанавливать поэтому просим помощи у каждого нашего пользователя.
    С сегодняшнего дня, за каждую восстановленную ссылку мы заплатим Вам.
    Подробнее тут -> ссылка
  • Перенесем твои заслуги с другого ресурса!
    Мы понимаем как сложно прокачивать аккаунты на форумах, вроде раскачал аккаунт, а тут появляется ресурс в 100 раз круче но тоже с системой прокачки и снова качать аккаунт...
    Предлагаем вам перенести Ваши заслуги на другом подобном ресурсе к нам.
    Подробности описаны тут -> ссылка
  • Вы можете получать по 2.5% с каждой покупки и продажи на маркете! Подробности в теме Партнёрская программа
Если Вы не хотите скачивать, Вы всегда можетепосмотретьонлайн, просто нажмите кнопку ниже :

Открыть плеер

Torrent_Bot

Торрент-Бот
Бот форума
4 Окт 2016
79
194
20
Информация о фильме
Оригинальное название: Интерны
Год выхода: 2010
Жанр: Ситуационная комедия
Режиссер: Максим Пежемский, Заур Болотаев
В ролях: Иван Охлобыстин, Кристина Асмус, Илья Глинников, Александр Ильин-мл., Дмитрий Шаракоис, Один Ланд Байрон, Вадим Демчог, Светлана Пермякова, Светлана Камынина, Мария Пирогова, Елена Суркова, Татьяна Лянник, Татьяна Мухина

О фильме:
Главные герои ситкома – четыре интерна. Они все время попадают в идиотские ситуации, а их руководитель доктор Быков (Охлобыстин) с удовольствием за этим наблюдает. Доводить интернов до белого каления Быкову помогает друг доктор Купитман и мешает главврач больницы Анастасия Кисегач. Почти все сюжеты взяты из реальной врачебной практики. Роль доктора, который помимо своей воли становится руководителем практики у четырех оболтусов-интернов, играет Иван Охлобыстин. Священник, актер и сценарист. Учился во ВГИКе, работал режиссером на «Мосфильме», занимался журналистикой, политическим пиаром, сотрудничал с ведущими телеканалами. На его счету – более 30 ролей в кино и более 20 сценариев. Закончил семинарию. В 2001 году отец Иоанн был рукоположен в сан священника. Воспитывает шестерых детей. В ситкоме снимается впервые.

08613e484512411022ba3674858711c9.gif

Страна: Россия
Студия: Comedy Club Production
Продолжительность: 143 x ~24:50:00
Перевод: Не требуется

Файл
Формат: MP4
Качество: DVDRip [1-6 Сезоны], WEB-DLRip [10 Сезон] | КПК
Видео: MPEG-4 AVC (x264), 640x360, ~500 kbps, 25.000 fps
Аудио: AAC LC, 44.1 KHz, 2 ch, 128 Kbps
Субтитры: Нет

Сори, но 7-9 сезонов в нормальном качестве для кодирования пока нет.

Семпл

Скриншоты
c37377989c0b047463f409be29c96ae6.jpg595ef04ab0755cbd505679638d1e5739.jpgd78e68bd0f2dc4f4b3a6f768cc8d6f8a.jpg5507853944ca49d0b24f0a36b5eb8778.jpg6057c48660e9e5cffc85bada38964b65.jpg2331ce34f0e8c89747692c2c305e5a6d.jpg01cb11b2fa71c6f0c11a9439d3528f55.jpg689f43a4ba645a3c46bb2ac933e06736.jpgc25d4bd858a75ca39899c7c6b4e9979e.jpgee8808e1bb6a64b8bc66d98ba6b19ea2.jpg
MI
Complete name : E:KinoInterny.S10.2013.AVC.WEB-DLRip.KPK.GeneralfilmInterny.s10e07.2013.AVC.WEB-DLRip.KPK.Generalfilm.mp4
Format : MPEG-4
Format profile : Base Media
Codec ID : isom
File size : 112 MiB
Duration : 24mn 55s
Overall bit rate mode : Variable
Overall bit rate : 630 Kbps
Encoded date : UTC 2014-03-19 16:05:23
Tagged date : UTC 2014-03-19 16:05:23

Video
ID : 1
Format : AVC
Format/Info : Advanced Video Codec
Format profile : [email protected]
Format settings, CABAC : No
Format settings, ReFrames : 6 frames
Codec ID : avc1
Codec ID/Info : Advanced Video Coding
Duration : 24mn 55s
Bit rate : 500 Kbps
Maximum bit rate : 1 710 Kbps
Width : 640 pixels
Height : 360 pixels
Display aspect ratio : 16:9
Frame rate mode : Constant
Frame rate : 25.000 fps
Color space : YUV
Chroma subsampling : 4:2:0
Bit depth : 8 bits
Scan type : Progressive
Bits/(Pixel*Frame) : 0.087
Stream size : 89.2 MiB (79%)
Writing library : x264 core 125 r2200 999b753
Encoding settings : cabac=0 / ref=6 / deblock=1:-1:-1 / analyse=0x1:0x111 / me=umh / subme=7 / psy=1 / psy_rd=1.00:0.00 / mixed_ref=0 / me_range=16 / chroma_me=1 / trellis=1 / 8x8dct=0 / cqm=0 / deadzone=21,11 / fast_pskip=0 / chroma_qp_offset=-2 / threads=12 / lookahead_threads=2 / sliced_threads=0 / nr=0 / decimate=1 / interlaced=0 / bluray_compat=0 / constrained_intra=0 / bframes=0 / weightp=0 / keyint=250 / keyint_min=25 / scenecut=40 / intra_refresh=0 / rc_lookahead=60 / rc=2pass / mbtree=1 / bitrate=500 / ratetol=1.0 / qcomp=0.60 / qpmin=0 / qpmax=69 / qpstep=4 / cplxblur=20.0 / qblur=0.5 / ip_ratio=1.40 / aq=1:1.00
Encoded date : UTC 2014-03-19 16:05:23
Tagged date : UTC 2014-03-19 16:05:25

Audio
ID : 2
Format : AAC
Format/Info : Advanced Audio Codec
Format profile : LC
Codec ID : 40
Duration : 24mn 55s
Bit rate mode : Variable
Bit rate : 128 Kbps
Maximum bit rate : 147 Kbps
Channel count : 2 channels
Channel positions : Front: L R
Sampling rate : 44.1 KHz
Compression mode : Lossy
Stream size : 22.8 MiB (20%)
Encoded date : UTC 2014-03-19 16:05:25
Tagged date : UTC 2014-03-19 16:05:25
Релиз от:
 

Вложения

  • 59 KB Просмотры: 8
    Личеров 0
    Сидеров 0
    Файлов 143
    Объем 15,4 GB

Привет!

Мы группа людей которые решили помочь другим в решении их проблем, а так же пользователям с поиском самых свежих и качественных инфопродуктов. За 4 с небольшим месяца мы создали этот форум на который заходят ежедневно тысячи человек и посещаемость постоянно растёт. Мы создали панель лицензирования для защиты PHP скриптов от воровства и SEO панель для мониторинга наших сайтов и выбора верной стратегии их развития. Мы надеемся что то что мы создали пригодится Вам и возможно Вы поможете нам развиваться и совершенствоваться вместе с Вами.

Статистика форума

Темы
414.370
Сообщения
475.396
Пользователи
96.561
Новый пользователь
starushka

Приложения форума для iOS и Android


У ркн там нет власти ;)
Приватные разговоры
Помощь Пользователи
    Вы не присоединились ни к одной комнате.