За последнюю неделю опубликовано 85 новых материалов.
Инструкция новичку Путеводитель по форуму Прокси для Telegram Показать подсказки , это бомба!

Скачать Интерны [13х01-20 из 20] (2015) WEB-DLRip от ivandubskoj бесплатно через торрент

  • Поучаствуй (в качестве покупателя) в любых пяти совместных покупках (кроме завершённых и "Моментальных") и получи группу "Новичок" навсегда -> ссылка на раздел
  • Получай до 480 рублей за каждого приглашенного пользователя!
    представляем Вам очередное расширение партнерской программы, подробности описаны тут -> ссылка
  • 90% материалов доступно к скачиванию после простой регистрации!
    Если же ты хочешь скачивать материалы без требования оставлять отзывы то получи группу "Новичок", 10 способов повышения описаны тут -> ссылка
  • К сожалению количество битых ссылок растет и мы уже не можем их оперативно восстанавливать поэтому просим помощи у каждого нашего пользователя.
    С сегодняшнего дня, за каждую восстановленную ссылку мы заплатим Вам.
    Подробнее тут -> ссылка
  • Перенесем твои заслуги с другого ресурса!
    Мы понимаем как сложно прокачивать аккаунты на форумах, вроде раскачал аккаунт, а тут появляется ресурс в 100 раз круче но тоже с системой прокачки и снова качать аккаунт...
    Предлагаем вам перенести Ваши заслуги на другом подобном ресурсе к нам.
    Подробности описаны тут -> ссылка
  • Вы можете получать по 2.5% с каждой покупки и продажи на маркете! Подробности в теме Партнёрская программа
Если Вы не хотите скачивать, Вы всегда можетепосмотретьонлайн, просто нажмите кнопку ниже :

Открыть плеер

Torrent_Bot

Торрент-Бот
Бот форума
4 Окт 2016
79
194
20
Информация о фильме
Название: Интерны
Год выпуска: 2015
Жанр:Комедия, ситком
Режиссёр: Максим Пежемский, Заур Болотаев, Милан Килибарда, Евгений Невский, Радда Новикова
В ролях: Иван Охлобыстин, Кристина Асмус, Илья Глинников, Александр Ильин мл., Дмитрий Шаракоис, Вадим Демчог, Светлана Камынина, Светлана Пермякова, Один Ланд Байрон, Татьяна Лянник, Мария Пирогова, Лидия Арефьева, Максим Артамонов, Михаил Павлик, Татьяна Мухина, Елена Суркова, Екатерина Радченко, Любовь Кондрашова, Александр Туманов, Ольга Алисина, Лариса Крупина, Михаил Петухов, Елена Помазан

О фильме:
Уже несколько лет сериал «Интерны» по праву можно назвать лучшим антидепрессантом на российском телевидении. От сезона к сезону зрители смеются над смешными и нелепыми ситуациями, в которых оказываются молодые и неопытные медики под строгим надзором циничного доктора Быкова. В новом сезоне Анастасию Кисегач будет мучить вампир, у нее попытаются украсть сына, а Быков опоит ее снотворным. Самому Быкову придется украсть труп, проснуться с барменшей и полюбить сеансы у психолога — и все это, не переставая следить за отделением, интернами и детьми.

08613e484512411022ba3674858711c9.gif

Страна: Россия
Студия: Телеканал ТНТ
Продолжительность: 20 x ~ 00:24:00

Файл
Кодек: XviD
Качество: WEB-DLRip
Видео: XviD, 704x400 (16:9), ~ 1820 Кбит/с, 25 кадр/с, 0.260 bit/pixel
Аудио: Русский, MP3, 48000 Гц, 128 Кбит/с, 2 канала (Стерео)
Субтитры: Нет

!Раздача ведётся путём добавления новых серий!
Внимание!
При каждом добавлении создаётся новый торрент. Чтобы начать докачку новой серии, пользователям необходимо сделать следующее:
1) остановить скачивание,
2) удалить старый торрент у себя из клиента (старые серии удалять не надо),
3) скачать новый торрент и запустить его у себя в клиенте вместо старого, при этом указать клиенту путь в старую папку куда и должно происходить скачивание новых серий.
Ваш клиент при этом должен произвести хеширование (проверку) старой папки (если не производит сам - помогите ему сделать это), и будет докачивать только те серии которых у вас ещё нет. Старые серии при этом не удаляются, а продолжают раздаваться!
Eсли вы уже удалили старые серии, то предотвратить повторную закачку старых серий можно, отжав галочку в соответствующих местах при запуске нового торрента.
MediaInfo
General
Complete name : Interny.s13.e01.2015.WEB-DLRip.avi
Format : AVI
Format/Info : Audio Video Interleave
File size : 350 MiB
Duration : 24mn 50s
Overall bit rate : 1 971 Kbps
Writing application : VirtualDubMod 1.5.10.3 | www.virtualdub-fr.org || (build 2550/release)
Writing library : VirtualDubMod build 2550/release
Video
ID : 0
Format : MPEG-4 Visual
Format profile : Advanced [email protected]
Format settings, BVOP : 1
Format settings, QPel : No
Format settings, GMC : No warppoints
Format settings, Matrix : Custom
Codec ID : XVID
Codec ID/Hint : XviD
Duration : 24mn 50s
Bit rate : 1 834 Kbps
Width : 704 pixels
Height : 400 pixels
Display aspect ratio : 16:9
Frame rate : 25.000 fps
Color space : YUV
Chroma subsampling : 4:2:0
Bit depth : 8 bits
Scan type : Progressive
Compression mode : Lossy
Bits/(Pixel*Frame) : 0.260
Stream size : 326 MiB (93%)
Writing library : XviD 73
Audio
ID : 1
Format : MPEG Audio
Format version : Version 1
Format profile : Layer 3
Codec ID : 55
Codec ID/Hint : MP3
Duration : 24mn 50s
Bit rate mode : Constant
Bit rate : 128 Kbps
Channel(s) : 2 channels
Sampling rate : 48.0 KHz
Compression mode : Lossy
Stream size : 22.8 MiB (6%)
Alignment : Aligned on interleaves
Interleave, duration : 40 ms (1.00 video frame)
Interleave, preload duration : 504 ms
Writing library : LAME3.99r
Encoding settings : -m s -V 4 -q 0 -lowpass 17 -b 128
Скриншоты
be3d7994a824b6c738f27bca73b3a02d.jpg6df8fc60a5a30f0514fb7cf4d7e48710.jpg4dbdca33de6c923567db987330357116.jpg075117606d9114ed6fc1db63ea295cd5.jpg
Автор рипа - ivandubskoj
 

Вложения

  • 36,5 KB Просмотры: 0
    Личеров 0
    Сидеров 0
    Файлов 20
    Объем 6,8 GB

Привет!

Мы группа людей которые решили помочь другим в решении их проблем, а так же пользователям с поиском самых свежих и качественных инфопродуктов. За 4 с небольшим месяца мы создали этот форум на который заходят ежедневно тысячи человек и посещаемость постоянно растёт. Мы создали панель лицензирования для защиты PHP скриптов от воровства и SEO панель для мониторинга наших сайтов и выбора верной стратегии их развития. Мы надеемся что то что мы создали пригодится Вам и возможно Вы поможете нам развиваться и совершенствоваться вместе с Вами.

Статистика форума

Темы
414.370
Сообщения
475.396
Пользователи
96.561
Новый пользователь
starushka

Приложения форума для iOS и Android


У ркн там нет власти ;)
Приватные разговоры
Помощь Пользователи
    Вы не присоединились ни к одной комнате.