За последнюю неделю опубликовано 34 новых материалов.
Инструкция новичку Путеводитель по форуму Прокси для Telegram Показать подсказки , это бомба!

Скачать Инсайт / Слепая любовь (2015) HDTV 1080i от MediaClub бесплатно через торрент

  • Поучаствуй (в качестве покупателя) в любых пяти совместных покупках (кроме завершённых и "Моментальных") и получи группу "Новичок" навсегда -> ссылка на раздел
  • Получай до 480 рублей за каждого приглашенного пользователя!
    представляем Вам очередное расширение партнерской программы, подробности описаны тут -> ссылка
  • 90% материалов доступно к скачиванию после простой регистрации!
    Если же ты хочешь скачивать материалы без требования оставлять отзывы то получи группу "Новичок", 10 способов повышения описаны тут -> ссылка
  • К сожалению количество битых ссылок растет и мы уже не можем их оперативно восстанавливать поэтому просим помощи у каждого нашего пользователя.
    С сегодняшнего дня, за каждую восстановленную ссылку мы заплатим Вам.
    Подробнее тут -> ссылка
  • Перенесем твои заслуги с другого ресурса!
    Мы понимаем как сложно прокачивать аккаунты на форумах, вроде раскачал аккаунт, а тут появляется ресурс в 100 раз круче но тоже с системой прокачки и снова качать аккаунт...
    Предлагаем вам перенести Ваши заслуги на другом подобном ресурсе к нам.
    Подробности описаны тут -> ссылка
  • Вы можете получать по 2.5% с каждой покупки и продажи на маркете! Подробности в теме Партнёрская программа
Если Вы не хотите скачивать, Вы всегда можетепосмотретьонлайн, просто нажмите кнопку ниже :

Открыть плеер

Torrent_Bot

Торрент-Бот
Бот форума
4 Окт 2016
93
160
20
Информация о фильме
Название: Инсайт (Слепая любовь)
Год выхода: 2015
Жанр: Драма, мелодрама
Режиссер: Александр Котт
В ролях: Александр Яценко, Агриппина Стеклова, Андрей Бильжо, Филипп Авдеев, Михаил Черкасов, Дмитрий Муляр

О фильме:
Павел Зуев теряет зрение и вынужден начать свою жизнь с нуля. Все связи с его прежней жизнью разорваны, зато в новой он встречает незаурядную женщину, способную видеть больше, чем другие люди. Ее зовут символично: Надежда, и она работает в местной больнице. Надежда поможет Зуеву найти силы и новое чувство реальности. Два этих человека с одинаково сильными характерами переживут, возможно, лучшие дни своей жизни.



Страна: Россия
Студия: Пан-Атлантик Студио
Продолжительность: 01:28:38
Перевод: Не требуется

Файл
Кодек: h.264
Качество: HDTV 1080i
Видео: MPEG-TS AVC, ~ 5926 Кбит/с, 1920x1080, 25.000 кадр/с
Звук: Русский (AC3, 6 ch, 448 Кбит/с)
Субтитры: Нет

Семпл

О релизе
Автор релиза - Silverok, первоисточник - Наш Кинороман HD
MI
General
ID : 1 (0x1)
Complete name : D:uTorrentInsait.2015.HDTV.1080i.MediaClub.ts
Format : MPEG-TS
File size : 4.15 GiB
Duration : 1 h 28 min
Overall bit rate mode : Variable
Overall bit rate : 6 710 kb/s
Maximum Overall bit rate : 35.5 Mb/s

Video
ID : 4113 (0x1011)
Menu ID : 1 (0x1)
Format : AVC
Format/Info : Advanced Video Codec
Format profile : [email protected]
Format settings, CABAC : Yes
Format settings, ReFrames : 4 frames
Codec ID : 27
Duration : 1 h 28 min
Bit rate mode : Variable
Bit rate : 5 926 kb/s
Maximum bit rate : 40.0 Mb/s
Width : 1 920 pixels
Height : 1 080 pixels
Display aspect ratio : 16:9
Frame rate : 25.000 FPS
Color space : YUV
Chroma subsampling : 4:2:0
Bit depth : 8 bits
Scan type : Interlaced
Scan type, store method : Separated fields
Scan order : Top Field First
Bits/(Pixel*Frame) : 0.114
Stream size : 3.67 GiB (88%)
Color range : Limited
Color primaries : BT.709
Transfer characteristics : BT.709
Matrix coefficients : BT.709

Audio
ID : 4352 (0x1100)
Menu ID : 1 (0x1)
Format : AC-3
Format/Info : Audio Coding 3
Mode extension : CM (complete main)
Format settings, Endianness : Big
Codec ID : 129
Duration : 1 h 28 min
Bit rate mode : Constant
Bit rate : 448 kb/s
Channel(s) : 6 channels
Channel positions : Front: L C R, Side: L R, LFE
Sampling rate : 48.0 kHz
Frame rate : 31.250 FPS (1536 spf)
Compression mode : Lossy
Delay relative to video : 40 ms
Stream size : 284 MiB (7%)
Language : Russian
Скриншоты

Релиз от: | Silverok
 

Вложения

  • 11,5 KB Просмотры: 0
    Личеров 0
    Сидеров 0
    Файлов 1
    Объем 4,2 GB

Привет!

Мы группа людей которые решили помочь другим в решении их проблем, а так же пользователям с поиском самых свежих и качественных инфопродуктов. За 4 с небольшим месяца мы создали этот форум на который заходят ежедневно тысячи человек и посещаемость постоянно растёт. Мы создали панель лицензирования для защиты PHP скриптов от воровства и SEO панель для мониторинга наших сайтов и выбора верной стратегии их развития. Мы надеемся что то что мы создали пригодится Вам и возможно Вы поможете нам развиваться и совершенствоваться вместе с Вами.

Статистика форума

Темы
406.601
Сообщения
464.997
Пользователи
84.279
Новый пользователь
motya2607

Приложения форума для iOS и Android


У ркн там нет власти ;)
Приватные разговоры
Помощь Пользователи
    Вы не присоединились ни к одной комнате.