За последнюю неделю опубликовано 57 новых материалов.
Инструкция новичку Путеводитель по форуму Прокси для Telegram Показать подсказки , это бомба!

Скачать Иностранец / The Foreigner (2003) WEBRip 1080p от MediaBit | P бесплатно через торрент

  • Поучаствуй (в качестве покупателя) в любых пяти совместных покупках (кроме завершённых и "Моментальных") и получи группу "Новичок" навсегда -> ссылка на раздел
  • Получай до 480 рублей за каждого приглашенного пользователя!
    представляем Вам очередное расширение партнерской программы, подробности описаны тут -> ссылка
  • 90% материалов доступно к скачиванию после простой регистрации!
    Если же ты хочешь скачивать материалы без требования оставлять отзывы то получи группу "Новичок", 10 способов повышения описаны тут -> ссылка
  • К сожалению количество битых ссылок растет и мы уже не можем их оперативно восстанавливать поэтому просим помощи у каждого нашего пользователя.
    С сегодняшнего дня, за каждую восстановленную ссылку мы заплатим Вам.
    Подробнее тут -> ссылка
  • Перенесем твои заслуги с другого ресурса!
    Мы понимаем как сложно прокачивать аккаунты на форумах, вроде раскачал аккаунт, а тут появляется ресурс в 100 раз круче но тоже с системой прокачки и снова качать аккаунт...
    Предлагаем вам перенести Ваши заслуги на другом подобном ресурсе к нам.
    Подробности описаны тут -> ссылка
  • Вы можете получать по 2.5% с каждой покупки и продажи на маркете! Подробности в теме Партнёрская программа
Если Вы не хотите скачивать, Вы всегда можетепосмотретьонлайн, просто нажмите кнопку ниже :

Открыть плеер

Torrent_Bot

Торрент-Бот
Бот форума
4 Окт 2016
92
163
20



Информация о фильме
Название: Иностранец
Оригинальное название: The Foreigner
Год выхода: 2003
Жанр: Боевик, триллер
Режиссер: Майкл Обловитц
В ролях: Стивен Сигал, Макс Райан, Гарри Ван Горкум, Джеффри Пирс, Анна-Луиза Плауман, Шерман Огастас, Гари Рэймонд, Филип Данбар, Изабела Окраса, Гржегорц Ковальчук, Дианна Камачо, Доби Опарей, Гжегож Эмануэль, Пшемыслав Салета, Ян Юревич, Виктория Смирнова, Джон Эдмондсон, Лех Дыблик, Мариуш Залейски, Марек Следзиевски, Томми Томашевски, Януш Блащик, Ирениуш Козёл, Тереза Шмигелувна, Мирослав Зброевич, Кейт Фишер, Яцек Самойлович, Райзард Клюге

О фильме: Тот, кто владеет информацией, живет долго и счастливо. Но, похоже, тайному агенту Koyлду не повезло. Он получил задание доставить из Франции в Германию некую посылку, о содержимом которой не имеет понятия. Печально, поскольку орды конкурирующих между собой убийц, немедленно садящихся герою на хвост и наперебой норовящих отправить его на тот свет, явно знают об этом грузе больше, чем он. Рутинное поручение превращается в безумную гонку, ставка в которой — жизнь. Такой поворот событий расстроит кого хочешь, но, когда расстраивается такой крутой и опасный парень, как Коулд — лучше не быть в числе его обидчиков.



Страна: США, Польша
Студия: Foreigner Productions Inc., Franchise Pictures
Продолжительность: 01:35:59
Перевод: Профессиональный многоголосый | Видеосервис

Файл
Кодек: MPEG-4 AVC
Качество: WEBRip 1080p
Видео: 5259 Кбит/с, 1916x1076, 23.976 кадр/с
Звук:
Аудио #1: AC3, 48 Гц, 448 Кбит/сек, 6 ch (L C R, + L R, LFE) | Русский | MVO
Аудио #2: AAC, 48 Гц, 126 Кбит/сек, 2 ch (L + R) | Английский
Субтитры: Английские

Семпл
MI
Общее
Уникальный идентификатор : 137542641701731444359094345939251171550 (0x6779BFCD6DD7D32F4E49AFD7E0CD10DE)
Полное имя : D:ТоррентыThe.Foreigner.2003.1080p.WEBInostranets.2003.x264.WEBRip(1080p)-MediaBit..mkv
Формат : Matroska
Версия формата : Version 4
Размер файла : 3,91 Гбайт
Продолжительность : 1 ч. 35 м.
Общий поток : 5 834 Кбит/сек
Название фильма : Иностранец / The Foreigner (2003) - MediaBit
Дата кодирования : UTC 2020-07-24 20:52:39
Программа кодирования : mkvmerge v25.0.0 ('Prog Noir') 64-bit
Библиотека кодирования : libebml v1.3.6 + libmatroska v1.4.9

Видео
Идентификатор : 1
Формат : AVC
Формат/Информация : Advanced Video Codec
Профиль формата : [email protected]
Настройки формата : CABAC / 4 Ref Frames
Параметр CABAC формата : Да
Параметр RefFrames формата : 4 кадра
Идентификатор кодека : V_MPEG4/ISO/AVC
Продолжительность : 1 ч. 35 м.
Битрейт : 5 259 Кбит/сек
Ширина : 1 916 пикселей
Высота : 1 076 пикселей
Соотношение сторон : 16:9
Режим частоты кадров : Постоянный
Частота кадров : 23,976 (23976/1000) кадра/сек
Цветовое пространство : YUV
Субдискретизация насыщенности : 4:2:0
Битовая глубина : 8 бит
Тип развёртки : Прогрессивная
Бит/(Пиксели*Кадры) : 0.106
Размер потока : 3,52 Гбайт (90%)
Заголовок : MediaBit
Язык : English
Default : Да
Forced : Нет
Цветовой диапазон : Limited
Основные цвета : BT.709
Характеристики трансфера : BT.709
Коэффициенты матрицы : BT.709

Аудио #1
Идентификатор : 2
Формат : AC-3
Формат/Информация : Audio Coding 3
Коммерческое название : Dolby Digital
Идентификатор кодека : A_AC3
Продолжительность : 1 ч. 35 м.
Вид битрейта : Постоянный
Битрейт : 448 Кбит/сек
Каналы : 6 каналов
Channel layout : L R C LFE Ls Rs
Частота : 48,0 КГц
Частота кадров : 31,250 кадров/сек (1536 SPF)
Метод сжатия : С потерями
Размер потока : 308 Мбайт (8%)
Заголовок : MVO | Видеосервис
Язык : Russian
Service kind : Complete Main
Default : Нет
Forced : Нет

Аудио #2
Идентификатор : 3
Формат : AAC LC
Формат/Информация : Advanced Audio Codec Low Complexity
Идентификатор кодека : A_AAC-2
Продолжительность : 1 ч. 35 м.
Битрейт : 126 Кбит/сек
Каналы : 2 канала
Channel layout : L R
Частота : 48,0 КГц
Частота кадров : 46,875 кадров/сек (1024 SPF)
Метод сжатия : С потерями
Размер потока : 86,5 Мбайт (2%)
Заголовок : Original
Язык : English
Default : Нет
Forced : Нет

Текст
Идентификатор : 4
Формат : UTF-8
Идентификатор кодека : S_TEXT/UTF8
Идентификатор кодека/Информация : UTF-8 Plain Text
Продолжительность : 1 ч. 30 м.
Битрейт : 48 бит/сек
Count of elements : 781
Размер потока : 32,5 Кбайт (0%)
Язык : English
Default : Нет
Forced : Нет

Меню
00:00:00.000 : en:Chapter 1
00:02:12.257 : en:Chapter 2
00:04:32.397 : en:Chapter 3
00:09:38.203 : en:Chapter 4
00:11:35.403 : en:Chapter 5
00:14:00.381 : en:Chapter 6
00:18:47.752 : en:Chapter 7
00:21:58.526 : en:Chapter 8
00:24:10.574 : en:Chapter 9
00:28:56.151 : en:Chapter 10
00:32:28.363 : en:Chapter 11
00:36:13.338 : en:Chapter 12
00:39:03.508 : en:Chapter 13
00:42:16.034 : en:Chapter 14
00:44:14.026 : en:Chapter 15
00:46:48.472 : en:Chapter 16
00:48:45.297 : en:Chapter 17
00:50:54.343 : en:Chapter 18
00:52:39.281 : en:Chapter 19
00:54:07.953 : en:Chapter 20
00:57:31.406 : en:Chapter 21
00:59:52.631 : en:Chapter 22
01:03:43.778 : en:Chapter 23
01:05:56.786 : en:Chapter 24
01:09:28.706 : en:Chapter 25
01:13:15.224 : en:Chapter 26
01:18:28.454 : en:Chapter 27
01:22:12.845 : en:Chapter 28
Скриншоты

Релиз от:
 

Вложения

  • 22,8 KB Просмотры: 0
    Личеров 0
    Сидеров 0
    Файлов 1
    Объем 3,9 GB

Привет!

Мы группа людей которые решили помочь другим в решении их проблем, а так же пользователям с поиском самых свежих и качественных инфопродуктов. За 4 с небольшим месяца мы создали этот форум на который заходят ежедневно тысячи человек и посещаемость постоянно растёт. Мы создали панель лицензирования для защиты PHP скриптов от воровства и SEO панель для мониторинга наших сайтов и выбора верной стратегии их развития. Мы надеемся что то что мы создали пригодится Вам и возможно Вы поможете нам развиваться и совершенствоваться вместе с Вами.

Статистика форума

Темы
406.698
Сообщения
465.162
Пользователи
84.789
Новый пользователь
Setis

Приложения форума для iOS и Android


У ркн там нет власти ;)
Приватные разговоры
Помощь Пользователи
    Вы не присоединились ни к одной комнате.