За последнюю неделю опубликовано 23 новых материалов.
Инструкция новичку Путеводитель по форуму Прокси для Telegram Показать подсказки , это бомба!

Скачать Инопланетное вторжение: Битва за Лос-Анджелес / Battle: Los Angeles (2011) WEB-DLRip-AVC | D | Open Matte бесплатно через торрент

  • Поучаствуй (в качестве покупателя) в любых пяти совместных покупках (кроме завершённых и "Моментальных") и получи группу "Новичок" навсегда -> ссылка на раздел
  • Получай до 480 рублей за каждого приглашенного пользователя!
    представляем Вам очередное расширение партнерской программы, подробности описаны тут -> ссылка
  • 90% материалов доступно к скачиванию после простой регистрации!
    Если же ты хочешь скачивать материалы без требования оставлять отзывы то получи группу "Новичок", 10 способов повышения описаны тут -> ссылка
  • К сожалению количество битых ссылок растет и мы уже не можем их оперативно восстанавливать поэтому просим помощи у каждого нашего пользователя.
    С сегодняшнего дня, за каждую восстановленную ссылку мы заплатим Вам.
    Подробнее тут -> ссылка
  • Перенесем твои заслуги с другого ресурса!
    Мы понимаем как сложно прокачивать аккаунты на форумах, вроде раскачал аккаунт, а тут появляется ресурс в 100 раз круче но тоже с системой прокачки и снова качать аккаунт...
    Предлагаем вам перенести Ваши заслуги на другом подобном ресурсе к нам.
    Подробности описаны тут -> ссылка
  • Вы можете получать по 2.5% с каждой покупки и продажи на маркете! Подробности в теме Партнёрская программа
Если Вы не хотите скачивать, Вы всегда можетепосмотретьонлайн, просто нажмите кнопку ниже :

Открыть плеер

Torrent_Bot

Торрент-Бот
Бот форума
4 Окт 2016
122
116
20



Информация о фильме
Название: Инопланетное вторжение: Битва за Лос-Анджелес
Оригинальное название: Battle: Los Angeles
Год выхода: 2011
Жанр: фантастика, боевик, триллер
Режиссер: Джонатан Либесман / Jonathan Liebesman
В ролях: Аарон Экхарт, Бриджет Мойнэхэн, Мишель Родригес, Майкл Пенья, Рамон Родригез, Кори Хардрикт, Джино Энтони Песи, Шаффер Смит, Джеймс Хироюки Лиао

О фильме:
Землю пытается захватить инопланетная цивилизация, истребляя все живое на своем пути. По всему миру начинается широкомасштабное сражение человечества за выживание. Отряду морских пехотинцев поручено во что бы то ни стало освободить осажденный город ангелов от таинственных и смертоносных тварей…



Страна: США
Студия: Columbia Pictures / Relativity Media
Продолжительность: 01:56:25
Перевод: Дубляж
Субтитры: Русские (надписи и пр., full), английские

Файл
Формат: Matroska
Качество: WEB-DLRip-AVC | Open Matte | *STARZ*
Видео: 1024x576 at 23.976 fps, x264, ~3131 kbps, 0.221 bpp
Аудио: AC3, 6 ch, ~448 kbps - | Русский | -
Формат субтитров: softsub (SRT)

***Релиз от:-=DoMiNo=-

Примечание & Сравнения:
Исходник видео Amazon STARZ - периодически появляется логотип.
Open Matte-версия фильма имеет большее наполнение кадра по сравнению с Blu-ray.

***Сравнения => BD vs WEB-DL Open Matte
M/I
x264 [info]: frame I:1018 Avg QP:15.20 size: 66226
x264 [info]: frame P:53290 Avg QP:18.50 size: 25985
x264 [info]: frame B:113174 Avg QP:20.02 size: 11308
x264 [info]: consecutive B-frames: 8.6% 9.6% 19.0% 24.0% 14.3% 19.5% 2.9% 1.1% 0.4% 0.1% 0.2% 0.2% 0.3%

General
Format : Matroska
Format version : Version 4
File size : 2.91 GiB
Duration : 1 h 56 min
Overall bit rate : 3 579 kb/s
Movie name : Битва за Лос-Анджелес.(2011).WEB-DLRip-AVC.O.M.[-=DoMiNo=-]
Encoded date : UTC 2020-01-18 17:43:22
Writing application : mkvmerge v42.0.0 ('Overtime') 64-bit
Writing library : libebml v1.3.10 + libmatroska v1.5.2
Attachments : poster.png / poster 2.jpg

Video
ID : 1
Format : AVC
Format/Info : Advanced Video Codec
Format profile : High@L4.1
Format settings : CABAC / 12 Ref Frames
Format settings, CABAC : Yes
Format settings, Reference : 12 frames
Codec ID : V_MPEG4/ISO/AVC
Duration : 1 h 56 min
Bit rate : 3 131 kb/s
Width : 1 024 pixels
Height : 576 pixels
Display aspect ratio : 16:9
Frame rate mode : Constant
Frame rate : 23.976 (24000/1001) FPS
Color space : YUV
Chroma subsampling : 4:2:0
Bit depth : 8 bits
Scan type : Progressive
Bits/(Pixel*Frame) : 0.221
Stream size : 2.54 GiB (87%)
Title : RIP_BY_-=DoMiNo=-
Writing library : x264 core 159 r2991 1771b55
Encoding settings : cabac=1 / ref=12 / deblock=1:-3:-3 / analyse=0x3:0x133 / me=umh / subme=11 / psy=1 / psy_rd=1.00:0.15 / mixed_ref=1 / me_range=32 / chroma_me=1 / trellis=2 / 8x8dct=1 / cqm=0 / deadzone=21,11 / fast_pskip=0 / chroma_qp_offset=-3 / threads=6 / lookahead_threads=1 / sliced_threads=0 / nr=0 / decimate=0 / interlaced=0 / bluray_compat=0 / constrained_intra=0 / bframes=12 / b_pyramid=2 / b_adapt=2 / b_bias=0 / direct=3 / weightb=1 / open_gop=0 / weightp=2 / keyint=250 / keyint_min=23 / scenecut=40 / intra_refresh=0 / rc=2pass / mbtree=0 / bitrate=3131 / ratetol=1.0 / qcomp=0.60 / qpmin=0 / qpmax=69 / qpstep=4 / cplxblur=20.0 / qblur=0.5 / ip_ratio=1.40 / pb_ratio=1.30 / aq=3:0.80
Language : English
Default : Yes
Forced : No
Color range : Limited
Color primaries : BT.709
Transfer characteristics : BT.709
Matrix coefficients : BT.709

Audio
ID : 2
Format : AC-3
Format/Info : Audio Coding 3
Commercial name : Dolby Digital
Codec ID : A_AC3
Duration : 1 h 56 min
Bit rate mode : Constant
Bit rate : 448 kb/s
Channel(s) : 6 channels
Channel layout : L R C LFE Ls Rs
Sampling rate : 48.0 kHz
Frame rate : 31.250 FPS (1536 SPF)
Compression mode : Lossy
Stream size : 373 MiB (13%)
Title : Dub - Blu-Ray CEE | DD 5.1 @ 448 kbps
Language : Russian
Service kind : Complete Main
Default : Yes
Forced : No

Text #1
ID : 3
Format : UTF-8
Codec ID : S_TEXT/UTF8
Codec ID/Info : UTF-8 Plain Text
Duration : 1 h 48 min
Bit rate : 1 b/s
Count of elements : 26
Stream size : 1.13 KiB (0%)
Title : Forced
Language : Russian
Default : No
Forced : Yes

Text #2
ID : 4
Format : UTF-8
Codec ID : S_TEXT/UTF8
Codec ID/Info : UTF-8 Plain Text
Duration : 1 h 54 min
Bit rate : 105 b/s
Count of elements : 1479
Stream size : 88.8 KiB (0%)
Title : Full - Netflix
Language : Russian
Default : Yes
Forced : No

Text #3
ID : 5
Format : UTF-8
Codec ID : S_TEXT/UTF8
Codec ID/Info : UTF-8 Plain Text
Duration : 1 h 50 min
Bit rate : 65 b/s
Count of elements : 1423
Stream size : 52.8 KiB (0%)
Title : Full - Netflix
Language : English
Default : No
Forced : No

Text #4
ID : 6
Format : UTF-8
Codec ID : S_TEXT/UTF8
Codec ID/Info : UTF-8 Plain Text
Duration : 1 h 51 min
Bit rate : 65 b/s
Count of elements : 1683
Stream size : 53.7 KiB (0%)
Title : SDH - Amazon
Language : English
Default : No
Forced : No

Menu
00:00:00.000 : en:Studio Logos
00:00:44.000 : en:The world is under attack, Title Sequence
00:02:24.000 : en:Michael works out
00:04:08.000 : en:John talks to Michael about retiring
00:06:09.000 : en:Nick and Kevin sample flowers
00:07:54.000 : en:peter sees a psychiatrist and Jason visits his brothers grave
00:09:46.000 : en:Soldiers drink and hit golf balls
00:11:12.000 : en:Martinez says goodbye to his wife
00:12:00.000 : en:Michael is brought back to duty
00:14:30.000 : en:The troops talk about Michael's past
00:17:17.000 : en:The troops watch news coverage of the attacks
00:18:33.000 : en:The troops head out to battle
00:22:35.000 : en:Ritchie gives the mission briefing
00:25:47.000 : en:The platoon is blinded by debris
00:28:05.000 : en:The platoon is attacked and boxed in
00:30:53.000 : en:The platoon takes cover inside a house
00:32:12.000 : en:Shaun attempts to reunite with the platoon
00:35:31.000 : en:Elena and Richard join William's platoon
00:38:26.000 : en:The platoon reaches the police station and searches for surviving civilians
00:41:56.000 : en:William commands troops to find a way out
00:45:08.000 : en:peter looks for way out
00:48:09.000 : en:An injured alien is experimented on while Nick and Kevin secure the bus
00:52:18.000 : en:Michael figures out the aliens weakness
00:54:49.000 : en:The platoon is ambushed by alien spaceships
00:58:44.000 : en:The platoon celebrates Michael's heroics
01:02:16.000 : en:The platoon finds the freeway route destroyed
01:06:11.000 : en:Alien tank attacks as troops lower the civilians to saftey
01:09:44.000 : en:William asks to be left and gives Michael a note for his wife
01:12:37.000 : en:Michael patches up Joe
01:15:14.000 : en:Michael and Elena determine their target
01:18:02.000 : en:The platoon makes it to a destroyed base
01:20:41.000 : en:Michael promises to protect Hector
01:23:51.000 : en:Michael stands up to Jason regarding his past
01:27:17.000 : en:The platoon makes their way to extraction point
01:30:20.000 : en:The platoon and civilians are extracted
01:34:41.000 : en:Troops prepare to take down the power source
01:35:56.000 : en:Troops make their way to the alien power source
01:38:08.000 : en:The troops split up to request an air strike
01:39:54.000 : en:Air support is requested and the platoon fights to survive
01:43:23.000 : en:The platoon assails the evacuating power source
01:47:24.000 : en:Aliens retreat and while the troops head out to fight again
01:51:18.000 : en:End Credits
Скриншоты
 

Вложения

  • 59,3 KB Просмотры: 0
    Личеров 0
    Сидеров 0
    Файлов 1
    Объем 2,9 GB

Привет!

Мы группа людей которые решили помочь другим в решении их проблем, а так же пользователям с поиском самых свежих и качественных инфопродуктов. За 4 с небольшим месяца мы создали этот форум на который заходят ежедневно тысячи человек и посещаемость постоянно растёт. Мы создали панель лицензирования для защиты PHP скриптов от воровства и SEO панель для мониторинга наших сайтов и выбора верной стратегии их развития. Мы надеемся что то что мы создали пригодится Вам и возможно Вы поможете нам развиваться и совершенствоваться вместе с Вами.

Статистика форума

Темы
385.054
Сообщения
430.355
Пользователи
62.967
Новый пользователь
Вика В

Приложения форума для iOS и Android


У ркн там нет власти ;)
Приватные разговоры
Помощь Пользователи
    Вы не присоединились ни к одной комнате.