За последнюю неделю опубликовано 15 новых материалов.
Инструкция новичку Путеводитель по форуму Прокси для Telegram Показать подсказки , это бомба!

Скачать Инопланетное вторжение: Битва за Лос-Анджелес / Battle: Los Angeles (2011) WEB-DL 1080p | D, A | Open Matte бесплатно через торрент

  • Поучаствуй (в качестве покупателя) в любых пяти совместных покупках (кроме завершённых и "Моментальных") и получи группу "Новичок" навсегда -> ссылка на раздел
  • Получай до 480 рублей за каждого приглашенного пользователя!
    представляем Вам очередное расширение партнерской программы, подробности описаны тут -> ссылка
  • 90% материалов доступно к скачиванию после простой регистрации!
    Если же ты хочешь скачивать материалы без требования оставлять отзывы то получи группу "Новичок", 10 способов повышения описаны тут -> ссылка
  • К сожалению количество битых ссылок растет и мы уже не можем их оперативно восстанавливать поэтому просим помощи у каждого нашего пользователя.
    С сегодняшнего дня, за каждую восстановленную ссылку мы заплатим Вам.
    Подробнее тут -> ссылка
  • Перенесем твои заслуги с другого ресурса!
    Мы понимаем как сложно прокачивать аккаунты на форумах, вроде раскачал аккаунт, а тут появляется ресурс в 100 раз круче но тоже с системой прокачки и снова качать аккаунт...
    Предлагаем вам перенести Ваши заслуги на другом подобном ресурсе к нам.
    Подробности описаны тут -> ссылка
  • Вы можете получать по 2.5% с каждой покупки и продажи на маркете! Подробности в теме Партнёрская программа
Если Вы не хотите скачивать, Вы всегда можетепосмотретьонлайн, просто нажмите кнопку ниже :

Открыть плеер

Torrent_Bot

Торрент-Бот
Бот форума
4 Окт 2016
122
116
20



Информация о фильме
Название: Инопланетное вторжение: Битва за Лос-Анджелес
Оригинальное название: Battle: Los Angeles
Год выхода: 2011
Жанр: фантастика, боевик, триллер
Режиссер: Джонатан Либесман / Jonathan Liebesman
В ролях: Аарон Экхарт, Бриджет Мойнэхэн, Мишель Родригес, Майкл Пенья, Рамон Родригез, Кори Хардрикт, Джино Энтони Песи, Шаффер Смит, Джеймс Хироюки Лиао

О фильме:
Землю пытается захватить инопланетная цивилизация, истребляя все живое на своем пути. По всему миру начинается широкомасштабное сражение человечества за выживание. Отряду морских пехотинцев поручено во что бы то ни стало освободить осажденный город ангелов от таинственных и смертоносных тварей…



Страна: США
Студия: Columbia Pictures / Relativity Media
Продолжительность: 01:56:25
Перевод: Профессиональный (полное дублирование), Авторский (одноголосый закадровый)

Файл
Формат: MKV
Качество: WEB-DL 1080p | Open Matte
Видео: 1920x1080, 23.976 fps, MPEG-4 AVC, 10.6 Mb/s
Аудио 1: Russian: 48 kHz, AC3, 6 ch, ~448 kbps avg - DUB
Аудио 2: Russian: 48 kHz, DTS, 6 ch, ~1509 kbps avg - AVO Гаврилов
Аудио 3: Ukrainian: 48 kHz, AC3, 6 ch, ~448 kbps avg - DUB
Аудио 4: English: 48 kHz, DTS, 6 ch, ~1509 kbps avg
Аудио 5: English: 48 kHz, E-AC3, 6 ch, ~640 kbps avg
Субтитры: русские (full), английские

Исходник видео: Amazon STARZ - периодически появляется логотип.

MediaInfo
General
Unique ID : 170417624742574093541797427165896745772 (0x80353D9B854A71A4B96B469059F9A32C)
Complete name : D:Battle.Los.Angeles.2011.Open.Matte.1080p.WEB-DL.2xRus.Ukr.2xEng.mkv
Format : Matroska
Format version : Version 4
File size : 12.3 GiB
Duration : 1 h 56 min
Overall bit rate : 15.1 Mb/s
Encoded date : UTC 2020-01-12 22:06:58
Writing application : mkvmerge v7.8.0 ('River Man') 64bit built on Mar 27 2015 16:31:37
Writing library : libebml v1.3.1 + libmatroska v1.4.2

Video
ID : 1
Format : AVC
Format/Info : Advanced Video Codec
Format profile : [email protected]
Format settings : CABAC / 4 Ref Frames
Format settings, CABAC : Yes
Format settings, Reference : 4 frames
Codec ID : V_MPEG4/ISO/AVC
Duration : 1 h 56 min
Bit rate : 10.6 Mb/s
Width : 1 920 pixels
Height : 1 080 pixels
Display aspect ratio : 16:9
Frame rate mode : Constant
Frame rate : 23.976 (24000/1001) FPS
Color space : YUV
Chroma subsampling : 4:2:0
Bit depth : 8 bits
Scan type : Progressive
Bits/(Pixel*Frame) : 0.206
Stream size : 8.35 GiB (68%)
Default : Yes
Forced : No
Color range : Limited
Color primaries : BT.709
Transfer characteristics : BT.709
Matrix coefficients : BT.709

Audio #1
ID : 2
Format : AC-3
Format/Info : Audio Coding 3
Commercial name : Dolby Digital
Codec ID : A_AC3
Duration : 1 h 56 min
Bit rate mode : Constant
Bit rate : 448 kb/s
Channel(s) : 6 channels
Channel layout : L R C LFE Ls Rs
Sampling rate : 48.0 kHz
Frame rate : 31.250 FPS (1536 SPF)
Bit depth : 16 bits
Compression mode : Lossy
Stream size : 373 MiB (3%)
Title : Dub - Blu-Ray CEE | DD 5.1 @ 448 kbps
Language : Russian
Service kind : Complete Main
Default : Yes
Forced : Yes

Audio #2
ID : 3
Format : DTS
Format/Info : Digital Theater Systems
Codec ID : A_DTS
Duration : 1 h 56 min
Bit rate mode : Constant
Bit rate : 1 509 kb/s
Channel(s) : 6 channels
Channel layout : C L R Ls Rs LFE
Sampling rate : 48.0 kHz
Frame rate : 93.750 FPS (512 SPF)
Bit depth : 24 bits
Compression mode : Lossy
Stream size : 1.23 GiB (10%)
Title : AVO - Андрей Гаврилов | DTS 5.1 @ 1509 kbps
Language : Russian
Default : No
Forced : No

Audio #3
ID : 4
Format : AC-3
Format/Info : Audio Coding 3
Commercial name : Dolby Digital
Codec ID : A_AC3
Duration : 1 h 56 min
Bit rate mode : Constant
Bit rate : 448 kb/s
Channel(s) : 6 channels
Channel layout : L R C LFE Ls Rs
Sampling rate : 48.0 kHz
Frame rate : 31.250 FPS (1536 SPF)
Bit depth : 16 bits
Compression mode : Lossy
Stream size : 373 MiB (3%)
Title : Dub - Blu-Ray CEE | DD 5.1 @ 448 kbps
Language : Ukrainian
Service kind : Complete Main
Default : No
Forced : No

Audio #4
ID : 5
Format : DTS
Format/Info : Digital Theater Systems
Codec ID : A_DTS
Duration : 1 h 56 min
Bit rate mode : Constant
Bit rate : 1 509 kb/s
Channel(s) : 6 channels
Channel layout : C L R Ls Rs LFE
Sampling rate : 48.0 kHz
Frame rate : 93.750 FPS (512 SPF)
Bit depth : 24 bits
Compression mode : Lossy
Stream size : 1.23 GiB (10%)
Title : Original - Blu-Ray | DTS 5.1 @ 1509 kbps
Language : English
Default : No
Forced : No

Audio #5
ID : 6
Format : E-AC-3
Format/Info : Enhanced AC-3
Commercial name : Dolby Digital Plus
Codec ID : A_EAC3
Duration : 1 h 56 min
Bit rate mode : Constant
Bit rate : 640 kb/s
Channel(s) : 6 channels
Channel layout : L R C LFE Ls Rs
Sampling rate : 48.0 kHz
Frame rate : 31.250 FPS (1536 SPF)
Compression mode : Lossy
Stream size : 533 MiB (4%)
Title : Original - Amazon | E-AC3 5.1 @ 640 kbps
Language : English
Service kind : Complete Main
Default : No
Forced : No

Text #1
ID : 7
Format : UTF-8
Codec ID : S_TEXT/UTF8
Codec ID/Info : UTF-8 Plain Text
Title : Full - Netflix
Language : Russian
Default : No
Forced : No

Text #2
ID : 8
Format : UTF-8
Codec ID : S_TEXT/UTF8
Codec ID/Info : UTF-8 Plain Text
Title : Full - Netflix
Language : English
Default : No
Forced : No

Text #3
ID : 9
Format : UTF-8
Codec ID : S_TEXT/UTF8
Codec ID/Info : UTF-8 Plain Text
Title : SDH - Amazon
Language : English
Default : No
Forced : No

Menu
00:00:00.000 : en:Studio Logos
00:00:44.000 : en:The world is under attack, Title Sequence
00:02:24.000 : en:Michael works out
00:04:08.000 : en:John talks to Michael about retiring
00:06:09.000 : en:Nick and Kevin sample flowers
00:07:54.000 : en:peter sees a psychiatrist and Jason visits his brothers grave
00:09:46.000 : en:Soldiers drink and hit golf balls
00:11:12.000 : en:Martinez says goodbye to his wife
00:12:00.000 : en:Michael is brought back to duty
00:14:30.000 : en:The troops talk about Michael's past
00:17:17.000 : en:The troops watch news coverage of the attacks
00:18:33.000 : en:The troops head out to battle
00:22:35.000 : en:Ritchie gives the mission briefing
00:25:47.000 : en:The platoon is blinded by debris
00:28:05.000 : en:The platoon is attacked and boxed in
00:30:53.000 : en:The platoon takes cover inside a house
00:32:12.000 : en:Shaun attempts to reunite with the platoon
00:35:31.000 : en:Elena and Richard join William's platoon
00:38:26.000 : en:The platoon reaches the police station and searches for surviving civilians
00:41:56.000 : en:William commands troops to find a way out
00:45:08.000 : en:peter looks for way out
00:48:09.000 : en:An injured alien is experimented on while Nick and Kevin secure the bus
00:52:18.000 : en:Michael figures out the aliens weakness
00:54:49.000 : en:The platoon is ambushed by alien spaceships
00:58:44.000 : en:The platoon celebrates Michael's heroics
01:02:16.000 : en:The platoon finds the freeway route destroyed
01:06:11.000 : en:Alien tank attacks as troops lower the civilians to saftey
01:09:44.000 : en:William asks to be left and gives Michael a note for his wife
01:12:37.000 : en:Michael patches up Joe
01:15:14.000 : en:Michael and Elena determine their target
01:18:02.000 : en:The platoon makes it to a destroyed base
01:20:41.000 : en:Michael promises to protect Hector
01:23:51.000 : en:Michael stands up to Jason regarding his past
01:27:17.000 : en:The platoon makes their way to extraction point
01:30:20.000 : en:The platoon and civilians are extracted
01:34:41.000 : en:Troops prepare to take down the power source
01:35:56.000 : en:Troops make their way to the alien power source
01:38:08.000 : en:The troops split up to request an air strike
01:39:54.000 : en:Air support is requested and the platoon fights to survive
01:43:23.000 : en:The platoon assails the evacuating power source
01:47:24.000 : en:Aliens retreat and while the troops head out to fight again
01:51:18.000 : en:End Credits
Сравнения


Скриншоты

 

Вложения

  • 123,9 KB Просмотры: 0
    Личеров 0
    Сидеров 0
    Файлов 1
    Объем 12,3 GB

Привет!

Мы группа людей которые решили помочь другим в решении их проблем, а так же пользователям с поиском самых свежих и качественных инфопродуктов. За 4 с небольшим месяца мы создали этот форум на который заходят ежедневно тысячи человек и посещаемость постоянно растёт. Мы создали панель лицензирования для защиты PHP скриптов от воровства и SEO панель для мониторинга наших сайтов и выбора верной стратегии их развития. Мы надеемся что то что мы создали пригодится Вам и возможно Вы поможете нам развиваться и совершенствоваться вместе с Вами.

Статистика форума

Темы
385.073
Сообщения
430.553
Пользователи
63.324
Новый пользователь
dasa

Приложения форума для iOS и Android


У ркн там нет власти ;)
Приватные разговоры
Помощь Пользователи
    Вы не присоединились ни к одной комнате.