За последнюю неделю опубликовано 26 новых материалов.
Инструкция новичку Путеводитель по форуму Прокси для Telegram Показать подсказки , это бомба!

Скачать Инферно / Inferno (1999) BDRip 720p от SuperMin | P2, A | GER Transfer бесплатно через торрент

  • Поучаствуй (в качестве покупателя) в любых пяти совместных покупках (кроме завершённых и "Моментальных") и получи группу "Новичок" навсегда -> ссылка на раздел
  • Получай до 480 рублей за каждого приглашенного пользователя!
    представляем Вам очередное расширение партнерской программы, подробности описаны тут -> ссылка
  • 90% материалов доступно к скачиванию после простой регистрации!
    Если же ты хочешь скачивать материалы без требования оставлять отзывы то получи группу "Новичок", 10 способов повышения описаны тут -> ссылка
  • К сожалению количество битых ссылок растет и мы уже не можем их оперативно восстанавливать поэтому просим помощи у каждого нашего пользователя.
    С сегодняшнего дня, за каждую восстановленную ссылку мы заплатим Вам.
    Подробнее тут -> ссылка
  • Перенесем твои заслуги с другого ресурса!
    Мы понимаем как сложно прокачивать аккаунты на форумах, вроде раскачал аккаунт, а тут появляется ресурс в 100 раз круче но тоже с системой прокачки и снова качать аккаунт...
    Предлагаем вам перенести Ваши заслуги на другом подобном ресурсе к нам.
    Подробности описаны тут -> ссылка
  • Вы можете получать по 2.5% с каждой покупки и продажи на маркете! Подробности в теме Партнёрская программа
Если Вы не хотите скачивать, Вы всегда можетепосмотретьонлайн, просто нажмите кнопку ниже :

Открыть плеер

Torrent_Bot

Торрент-Бот
Бот форума
4 Окт 2016
122
116
20



Информация о фильме
Название: Инферно
Оригинальное название: Inferno
Год выпуска: 1999
Жанр:боевик, драма
Режиссер: Джон Г. Эвилдсен
В ролях: Жан-Клод Ван Дамм, Пэт Морита, Дэнни Трехо, Гэбриэлль Фицпатрик, Ларри Дрэйк, Винсент Скьявелли, Дэвид Фралик, Сайлас Уэйр Митчелл, Джонатан Эвилдсен, Джейми Прессли


Эдди Ломакс - одинокий воин, утративший веру в себя. Поиски старого друга - одинокого индейца-шамана - приводят его в разрушенный город с адским названием Инферно, где у Эдди много врагов. Полная луна и зов койота помогут ему обрести былую силу и осуществить благородную цель: защитить местных жителей от жестоких банд байкеров и контрабандистов.




Страна: США
Студия: Columbia TriStar Home Video
Продолжительность: 01:34:57
Перевод: Профессиональный (двухголосый) Андрей Градов и Ирина Маликова
+ Авторский (одноголосый) Юрий Сербин + Сергей Визгунов

Файл
Кодек: H.264
Качество: BDRip 720
Видео: 1280x720 (16:9), 3263 kbps, 24.000 fps
Звук: Русский (AC3, 2ch, 192 Кбит/с) Андрей Градов и Ирина Маликова
Русский (AC3, 2ch, 192 Кбит/с) Юрий Сербин
Русский (AC3, 2ch, 192 Кбит/с) Сергей Визгунов
Английский (AC-3, 2ch, 384 kbps)
Субтитры: английские



MI
x264 [info]: frame I:1106 Avg QP:17.85 size: 86394
x264 [info]: frame P:29024 Avg QP:18.67 size: 41236
x264 [info]: frame B:106619 Avg QP:20.99 size: 9673
x264 [info]: consecutive B-frames: 1.8% 2.2% 8.0% 12.4% 25.9% 46.1% 2.8% 0.4% 0.3%

General
Unique ID : 116166531524901121208511149060844036686 (0x5764DC3371204F3BE7CBE17C56C2224E)
Complete name : F:ФИЛЬМЫРУТОРИнферно. BDRip 720p.mkv
Format : Matroska
Format version : Version 4
File size : 2.80 GiB
Duration : 1 h 34 min
Overall bit rate : 4 225 kb/s
Movie name : Инферно / Inferno (1999) - #LORDKILL#
Encoded date : UTC 2020-01-16 17:13:55
Writing application : mkvmerge v32.0.0 ('Astral Progressions') 64-bit
Writing library : libebml v1.3.7 + libmatroska v1.5.0

Video
ID : 1
Format : AVC
Format/Info : Advanced Video Codec
Format profile : High@L4.1
Format settings : CABAC / 9 Ref Frames
Format settings, CABAC : Yes
Format settings, Reference : 9 frames
Codec ID : V_MPEG4/ISO/AVC
Duration : 1 h 34 min
Bit rate : 3 263 kb/s
Width : 1 280 pixels
Height : 720 pixels
Display aspect ratio : 16:9
Frame rate mode : Constant
Frame rate : 24.000 FPS
Color space : YUV
Chroma subsampling : 4:2:0
Bit depth : 8 bits
Scan type : Progressive
Bits/(Pixel*Frame) : 0.148
Stream size : 2.16 GiB (77%)
Writing library : x264 core 146 r2538 121396c
Encoding settings : cabac=1 / ref=9 / deblock=1:-1:-1 / analyse=0x3:0x113 / me=umh / subme=10 / psy=1 / psy_rd=1.00:0.15 / mixed_ref=1 / me_range=32 / chroma_me=1 / trellis=2 / 8x8dct=1 / cqm=0 / deadzone=21,11 / fast_pskip=0 / chroma_qp_offset=-3 / threads=12 / lookahead_threads=2 / sliced_threads=0 / nr=0 / decimate=1 / interlaced=0 / bluray_compat=0 / constrained_intra=0 / bframes=8 / b_pyramid=2 / b_adapt=2 / b_bias=0 / direct=1 / weightb=1 / open_gop=0 / weightp=2 / keyint=240 / keyint_min=23 / scenecut=40 / intra_refresh=0 / rc=crf / mbtree=0 / crf=19.5 / qcomp=0.60 / qpmin=0 / qpmax=69 / qpstep=4 / ip_ratio=1.40 / pb_ratio=1.30 / aq=1:1.00
Language : English
Default : Yes
Forced : No

Audio #1
ID : 2
Format : AC-3
Format/Info : Audio Coding 3
Commercial name : Dolby Digital
Codec ID : A_AC3
Duration : 1 h 34 min
Bit rate mode : Constant
Bit rate : 192 kb/s
Channel(s) : 2 channels
Channel layout : L R
Sampling rate : 48.0 kHz
Frame rate : 31.250 FPS (1536 SPF)
Compression mode : Lossy
Stream size : 130 MiB (5%)
Title : Андрей Градов и Ирина Маликова
Language : Russian
Service kind : Complete Main
Default : Yes
Forced : No

Audio #2
ID : 3
Format : AC-3
Format/Info : Audio Coding 3
Commercial name : Dolby Digital
Codec ID : A_AC3
Duration : 1 h 34 min
Bit rate mode : Constant
Bit rate : 192 kb/s
Channel(s) : 2 channels
Channel layout : L R
Sampling rate : 48.0 kHz
Frame rate : 31.250 FPS (1536 SPF)
Compression mode : Lossy
Stream size : 130 MiB (5%)
Title : Юрий Сербин
Language : Russian
Service kind : Complete Main
Default : No
Forced : No

Audio #3
ID : 4
Format : AC-3
Format/Info : Audio Coding 3
Commercial name : Dolby Digital
Codec ID : A_AC3
Duration : 1 h 34 min
Bit rate mode : Constant
Bit rate : 192 kb/s
Channel(s) : 2 channels
Channel layout : L R
Sampling rate : 48.0 kHz
Frame rate : 31.250 FPS (1536 SPF)
Compression mode : Lossy
Stream size : 130 MiB (5%)
Title : Сергей Визгунов
Language : Russian
Service kind : Complete Main
Default : No
Forced : No

Audio #4
ID : 5
Format : AC-3
Format/Info : Audio Coding 3
Commercial name : Dolby Digital
Codec ID : A_AC3
Duration : 1 h 34 min
Bit rate mode : Constant
Bit rate : 384 kb/s
Channel(s) : 2 channels
Channel layout : L R
Sampling rate : 48.0 kHz
Frame rate : 31.250 FPS (1536 SPF)
Compression mode : Lossy
Stream size : 261 MiB (9%)
Language : English
Service kind : Complete Main
Default : No
Forced : No

Text
ID : 6
Format : UTF-8
Codec ID : S_TEXT/UTF8
Codec ID/Info : UTF-8 Plain Text
Duration : 1 h 25 min
Bit rate : 56 b/s
Count of elements : 982
Stream size : 35.3 KiB (0%)
Language : English
Default : No
Forced : No

Menu
00:00:00.000 : en:00:00:00.000
00:08:14.208 : en:00:08:14.208
00:16:51.708 : en:00:16:51.708
00:24:17.333 : en:00:24:17.333
00:35:18.667 : en:00:35:18.667
00:41:43.125 : en:00:41:43.125
00:50:51.833 : en:00:50:51.833
00:58:19.708 : en:00:58:19.708
01:05:47.708 : en:01:05:47.708
01:14:26.708 : en:01:14:26.708
01:21:56.875 : en:01:21:56.875
01:28:39.000 : en:01:28:39.000
Скриншоты
 

Вложения

  • 15 KB Просмотры: 0
    Личеров 0
    Сидеров 0
    Файлов 1
    Объем 2,8 GB

Привет!

Мы группа людей которые решили помочь другим в решении их проблем, а так же пользователям с поиском самых свежих и качественных инфопродуктов. За 4 с небольшим месяца мы создали этот форум на который заходят ежедневно тысячи человек и посещаемость постоянно растёт. Мы создали панель лицензирования для защиты PHP скриптов от воровства и SEO панель для мониторинга наших сайтов и выбора верной стратегии их развития. Мы надеемся что то что мы создали пригодится Вам и возможно Вы поможете нам развиваться и совершенствоваться вместе с Вами.

Статистика форума

Темы
385.054
Сообщения
430.307
Пользователи
62.914
Новый пользователь
Naelsanapilsa

Приложения форума для iOS и Android


У ркн там нет власти ;)
Приватные разговоры
Помощь Пользователи
    Вы не присоединились ни к одной комнате.