За последнюю неделю опубликовано 26 новых материалов.
Инструкция новичку Путеводитель по форуму Прокси для Telegram Показать подсказки , это бомба!

Скачать Импульс / Urge (2016) BDRip-AVC от New-Team | D бесплатно через торрент

  • Поучаствуй (в качестве покупателя) в любых пяти совместных покупках (кроме завершённых и "Моментальных") и получи группу "Новичок" навсегда -> ссылка на раздел
  • Получай до 480 рублей за каждого приглашенного пользователя!
    представляем Вам очередное расширение партнерской программы, подробности описаны тут -> ссылка
  • 90% материалов доступно к скачиванию после простой регистрации!
    Если же ты хочешь скачивать материалы без требования оставлять отзывы то получи группу "Новичок", 10 способов повышения описаны тут -> ссылка
  • К сожалению количество битых ссылок растет и мы уже не можем их оперативно восстанавливать поэтому просим помощи у каждого нашего пользователя.
    С сегодняшнего дня, за каждую восстановленную ссылку мы заплатим Вам.
    Подробнее тут -> ссылка
  • Перенесем твои заслуги с другого ресурса!
    Мы понимаем как сложно прокачивать аккаунты на форумах, вроде раскачал аккаунт, а тут появляется ресурс в 100 раз круче но тоже с системой прокачки и снова качать аккаунт...
    Предлагаем вам перенести Ваши заслуги на другом подобном ресурсе к нам.
    Подробности описаны тут -> ссылка
  • Вы можете получать по 2.5% с каждой покупки и продажи на маркете! Подробности в теме Партнёрская программа
Если Вы не хотите скачивать, Вы всегда можетепосмотретьонлайн, просто нажмите кнопку ниже :

Открыть плеер

Torrent_Bot

Торрент-Бот
Бот форума
4 Окт 2016
96
155
20
Импульс
Urge

«Новый оттенок твоего удовольствия»




Страна: США
Жанр: триллер

Год выпуска: 2016
Продолжительность: 01:30:40

Перевод: Профессиональный (полное дублирование) [iTunes]
Субтитры: нет
Оригинальная аудиодорожка: нет

Режиссер: Аарон Кауфман / Aaron Kaufman

В ролях: Пирс Броснан, Джастин Чатвин, Дэнни Мастерсон, Эшли Грин, Ник Тун, Алексис Нэп, Крис Гир, Бар Пали, Ки Хо, Элисон Ломан, Джаггер Давид Фишман-Сальгеро, Эрик Дэвис

Описание:
Абсолютно все ищут новых ощущений. А что если на земле есть место, где дают возможность испытать любой оттенок удовольствия? Группа друзей прилетает на остров и решает попробовать вещество, которое лишит их способности контролировать свои порывы. Теперь они могут делать все, о чем они так долго мечтали. Но как далеко они готовы зайти в поисках наивысшего наслаждения?



Релиз:

Автор рипа: stalkerok

Сэмпл

Качество видео: BDRip-AVC[Urge (2016) Blu-ray Disc -BLUEBIRD]
Формат видео: MKV
Видео кодек: AVC
Аудио кодек: AC3
Видео: AVC, 1926 Кбит/сек, 1058x572 (1.85:1), 23,976 кадр/сек
Аудио: AC3, 384 Кбит/сек, 48 КГц, 5.1 - русский
Навигация по главам: есть

x264/MediaInfo
---[Information] [02.05.2018 17:03:27] x264 [info]: frame I:992 Avg QP:17.73 size: 58235
---[Information] [02.05.2018 17:03:27] x264 [info]: frame P:29270 Avg QP:19.70 size: 21340
---[Information] [02.05.2018 17:03:27] x264 [info]: frame B:100179 Avg QP:22.18 size: 6270

General
Unique ID : 183022321447953333675371868066008857682 (0x89B0D122C4F32C6F8A358F19CD90FC52)
Complete name : O:!RipsUrge (2016)Urge.2016.BDRip.x264.Rus.stalkerok.New-Team.mkv
Format : Matroska
Format version : Version 4 / Version 2
File size : 1.46 GiB
Duration : 1 h 30 min
Overall bit rate : 2 313 kb/s
Movie name : Urge (2016) (Rip by stalkerok)
Encoded date : UTC 2018-07-06 20:30:05
Writing application : mkvmerge v8.6.1 ('Flying') 64bit
Writing library : libebml v1.3.3 + libmatroska v1.4.4

Video
ID : 1
Format : AVC
Format/Info : Advanced Video Codec
Format profile : [email protected]
Format settings, CABAC : Yes
Format settings, ReFrames : 13 frames
Codec ID : V_MPEG4/ISO/AVC
Duration : 1 h 30 min
Bit rate : 1 927 kb/s
Width : 1 058 pixels
Height : 572 pixels
Display aspect ratio : 1.85:1
Frame rate mode : Constant
Frame rate : 23.976 (24000/1001) FPS
Color space : YUV
Chroma subsampling : 4:2:0
Bit depth : 8 bits
Scan type : Progressive
Bits/(Pixel*Frame) : 0.133
Stream size : 1.22 GiB (83%)
Title : Urge (2016) (Rip by stalkerok)
Writing library : x264 core 155 r2901 7d0ff22
Encoding settings : cabac=1 / ref=13 / deblock=1:-3:-2 / analyse=0x3:0x133 / me=umh / subme=11 / psy=1 / psy_rd=1.00:0.00 / mixed_ref=1 / me_range=32 / chroma_me=1 / trellis=2 / 8x8dct=1 / cqm=0 / deadzone=21,11 / fast_pskip=0 / chroma_qp_offset=-2 / threads=12 / lookahead_threads=3 / sliced_threads=0 / nr=0 / decimate=1 / interlaced=0 / bluray_compat=0 / constrained_intra=0 / bframes=15 / b_pyramid=2 / b_adapt=2 / b_bias=0 / direct=3 / weightb=1 / open_gop=0 / weightp=2 / keyint=240 / keyint_min=23 / scenecut=40 / intra_refresh=0 / rc_lookahead=60 / rc=crf / mbtree=0 / crf=19.9 / qcomp=0.65 / qpmin=0 / qpmax=69 / qpstep=4 / vbv_maxrate=50000 / vbv_bufsize=62500 / crf_max=0.0 / nal_hrd=none / filler=0 / ip_ratio=1.40 / pb_ratio=1.30 / aq=3:0.80 / zones=118213,127686,q=34
Default : Yes
Forced : No

Audio
ID : 2
Format : AC-3
Format/Info : Audio Coding 3
Mode extension : CM (complete main)
Format settings, Endianness : Big
Codec ID : A_AC3
Duration : 1 h 30 min
Bit rate mode : Constant
Bit rate : 384 kb/s
Channel(s) : 6 channels
Channel positions : Front: L C R, Side: L R, LFE
Sampling rate : 48.0 kHz
Frame rate : 31.250 FPS (1536 spf)
Compression mode : Lossy
Stream size : 249 MiB (17%)
Language : Russian
Default : Yes
Forced : No

Menu
00:00:00.000 : en:Chapter 1
00:05:49.932 : en:Chapter 2
00:12:17.235 : en:Chapter 3
00:15:08.782 : en:Chapter 4
00:20:13.002 : en:Chapter 5
00:24:56.744 : en:Chapter 6
00:31:02.067 : en:Chapter 7
00:35:52.608 : en:Chapter 8
00:39:56.059 : en:Chapter 9
00:45:06.704 : en:Chapter 10
00:51:05.061 : en:Chapter 11
00:56:21.710 : en:Chapter 12
01:00:50.021 : en:Chapter 13
01:05:21.958 : en:Chapter 14
01:09:44.137 : en:Chapter 15
01:16:12.649 : en:Chapter 16


 

Вложения

  • 15,8 KB Просмотры: 1
    Личеров 0
    Сидеров 0
    Файлов 1
    Объем 1,5 GB

Привет!

Мы группа людей которые решили помочь другим в решении их проблем, а так же пользователям с поиском самых свежих и качественных инфопродуктов. За 4 с небольшим месяца мы создали этот форум на который заходят ежедневно тысячи человек и посещаемость постоянно растёт. Мы создали панель лицензирования для защиты PHP скриптов от воровства и SEO панель для мониторинга наших сайтов и выбора верной стратегии их развития. Мы надеемся что то что мы создали пригодится Вам и возможно Вы поможете нам развиваться и совершенствоваться вместе с Вами.

Статистика форума

Темы
406.519
Сообщения
464.555
Пользователи
82.840
Новый пользователь
Мария 2548

Приложения форума для iOS и Android


У ркн там нет власти ;)
Приватные разговоры
Помощь Пользователи
    Вы не присоединились ни к одной комнате.