За последнюю неделю опубликовано 119 новых материалов.
Инструкция новичку Путеводитель по форуму Прокси для Telegram Показать подсказки , это бомба!

Скачать Игра Кауфмана / Kaufman's Game (2017) HDRip 1080p | GreenРай Studio бесплатно через торрент

  • Поучаствуй (в качестве покупателя) в любых пяти совместных покупках (кроме завершённых и "Моментальных") и получи группу "Новичок" навсегда -> ссылка на раздел
  • Получай до 480 рублей за каждого приглашенного пользователя!
    представляем Вам очередное расширение партнерской программы, подробности описаны тут -> ссылка
  • 90% материалов доступно к скачиванию после простой регистрации!
    Если же ты хочешь скачивать материалы без требования оставлять отзывы то получи группу "Новичок", 10 способов повышения описаны тут -> ссылка
  • К сожалению количество битых ссылок растет и мы уже не можем их оперативно восстанавливать поэтому просим помощи у каждого нашего пользователя.
    С сегодняшнего дня, за каждую восстановленную ссылку мы заплатим Вам.
    Подробнее тут -> ссылка
  • Перенесем твои заслуги с другого ресурса!
    Мы понимаем как сложно прокачивать аккаунты на форумах, вроде раскачал аккаунт, а тут появляется ресурс в 100 раз круче но тоже с системой прокачки и снова качать аккаунт...
    Предлагаем вам перенести Ваши заслуги на другом подобном ресурсе к нам.
    Подробности описаны тут -> ссылка
  • Вы можете получать по 2.5% с каждой покупки и продажи на маркете! Подробности в теме Партнёрская программа
Если Вы не хотите скачивать, Вы всегда можетепосмотретьонлайн, просто нажмите кнопку ниже :

Открыть плеер

Torrent_Bot

Торрент-Бот
Бот форума
4 Окт 2016
124
95
20
Информация о фильме
Год выхода: 2017
Наименование: Игра Кауфмана
Оригинальное наименование: Kaufman's Game
Произведено: Великобритания
Жанр:триллер, криминал
Режиссер постановщик: Хельер Биссел-Томас
В главных ролях: Тор Андреас Фагерланд, Эми Пембертон, Руперт Шелборн, Тоби Осмонд, Джонни Изани, Джо Даймонд, Лука Делла Валле, Роберт Торетто, Дэвид К. Уайтинг

О фильме: Стенли, безработный молодой человек, одержимый боксом, всячески старается улучшить свою выносливость и очень кстати встречает на своем пути незнакомца, который предлагает ему стероиды особого производства. Знакомство с ним приводит Стенли в довольно мощную и жестокую организацию. В ней он проходит ряд испытаний, чтобы доказать твердость своего духа. Фильм рассказывает о силе и целеустремленности, а также о том, как можно стать злейшим врагом самому себе. Вместе с тем он вбирает в себя все архетипы классического нуара, сочетая в себе тёмный таинственный нарратив Франца Кафки и современную минималистичную эстетику.



Файл
Качество: HDRip 1080p
Видео данные: MKV, 1920x810 (2:40:1), 23.976 fps, 7090 Кбит/с
Аудио данные: AAC, 2 ch, 192 Кбит/с
Перевод: Любительский многоголосый (GreenРай Studio)
Продолжительность: 01:33:07

Медиаинфо
General
Unique ID : 220901439899697210532753015702611876811 (0xA63011DD809D5DED9823DAF70488DBCB)
Complete name : E:ГРИНРАЙKaufmans.Game.2017.P.BDRip.1080p.mkv
Format : Matroska
Format version : Version 4 / Version 2
File size : 4.74 GiB
Duration : 1 h 33 min
Overall bit rate : 7 282 kb/s
Encoded date : UTC 2018-04-02 20:24:09
Writing application : mkvmerge v21.0.0 ('Tardigrades Will Inherit The Earth') 64-bit
Writing library : libebml v1.3.5 + libmatroska v1.4.8

Video
ID : 1
Format : AVC
Format/Info : Advanced Video Codec
Format profile : High@L4
Format settings : CABAC / 1 Ref Frames
Format settings, CABAC : Yes
Format settings, RefFrames : 1 frame
Format settings, GOP : M=1, N=30
Codec ID : V_MPEG4/ISO/AVC
Duration : 1 h 33 min
Bit rate : 7 090 kb/s
Width : 1 920 pixels
Height : 810 pixels
Display aspect ratio : 2.40:1
Frame rate mode : Constant
Frame rate : 23.976 (24000/1001) FPS
Color space : YUV
Chroma subsampling : 4:2:0
Bit depth : 8 bits
Scan type : Progressive
Bits/(Pixel*Frame) : 0.190
Stream size : 4.61 GiB (97%)
Language : English
Default : Yes
Forced : No

Audio
ID : 2
Format : AAC
Format/Info : Advanced Audio Codec
Format profile : LC
Codec ID : A_AAC-2
Duration : 1 h 33 min
Bit rate : 192 kb/s
Channel(s) : 2 channels
Channel positions : Front: L R
Sampling rate : 48.0 kHz
Frame rate : 46.875 FPS (1024 SPF)
Compression mode : Lossy
Stream size : 126 MiB (3%)
Language : English
Default : Yes
Forced : No

Внимание, имеется видео и аудио реклама от спонсора показа

Скриншоты

Релиз от:
 

Вложения

  • 12,8 KB Просмотры: 1
    Личеров 0
    Сидеров 0
    Файлов 1
    Объем 4,7 GB
Ваш e-mail не будет опубликован. Он потребуется для подтверждения Вашего поста.
Оформление текста Нажмите «Ввод», чтобы отправить ответ.

Привет!

Мы группа людей которые решили помочь другим в решении их проблем, а так же пользователям с поиском самых свежих и качественных инфопродуктов. За 4 с небольшим месяца мы создали этот форум на который заходят ежедневно тысячи человек и посещаемость постоянно растёт. Мы создали панель лицензирования для защиты PHP скриптов от воровства и SEO панель для мониторинга наших сайтов и выбора верной стратегии их развития. Мы надеемся что то что мы создали пригодится Вам и возможно Вы поможете нам развиваться и совершенствоваться вместе с Вами.

Статистика форума

Темы
378.765
Сообщения
418.181
Пользователи
49.922
Новый пользователь
devenport774

Приложения форума для iOS и Android


У ркн там нет власти ;)
Приватные разговоры
Помощь Пользователи
    Вы не присоединились ни к одной комнате.