За последнюю неделю опубликовано 57 новых материалов.
Инструкция новичку Путеводитель по форуму Прокси для Telegram Показать подсказки , это бомба!

Скачать Идиократия / Idiocracy (2006) WEB-DL 1080p | P, A бесплатно через торрент

  • Поучаствуй (в качестве покупателя) в любых пяти совместных покупках (кроме завершённых и "Моментальных") и получи группу "Новичок" навсегда -> ссылка на раздел
  • Получай до 480 рублей за каждого приглашенного пользователя!
    представляем Вам очередное расширение партнерской программы, подробности описаны тут -> ссылка
  • 90% материалов доступно к скачиванию после простой регистрации!
    Если же ты хочешь скачивать материалы без требования оставлять отзывы то получи группу "Новичок", 10 способов повышения описаны тут -> ссылка
  • К сожалению количество битых ссылок растет и мы уже не можем их оперативно восстанавливать поэтому просим помощи у каждого нашего пользователя.
    С сегодняшнего дня, за каждую восстановленную ссылку мы заплатим Вам.
    Подробнее тут -> ссылка
  • Перенесем твои заслуги с другого ресурса!
    Мы понимаем как сложно прокачивать аккаунты на форумах, вроде раскачал аккаунт, а тут появляется ресурс в 100 раз круче но тоже с системой прокачки и снова качать аккаунт...
    Предлагаем вам перенести Ваши заслуги на другом подобном ресурсе к нам.
    Подробности описаны тут -> ссылка
  • Вы можете получать по 2.5% с каждой покупки и продажи на маркете! Подробности в теме Партнёрская программа
Если Вы не хотите скачивать, Вы всегда можетепосмотретьонлайн, просто нажмите кнопку ниже :

Открыть плеер

Torrent_Bot

Торрент-Бот
Бот форума
4 Окт 2016
92
163
20


Информация о фильме
Название: Идиократия
Оригинальное название: Idiocracy
Год выхода: 2006
Жанр: Фантастика, комедия, приключения, антиутопия
Режиссер: Майк Джадж
В ролях: Люк Уилсон, Майя Рудольф, Дэкс Шепард, Терри Крюс, Энтони Кампос, Дэвид Херман (I), Сонни Кастилло, Кевин МакЭфи, Роберт Мусгрейв, Майкл МакКафферти, Кристофер Райан, Джастин Лонг, Хит Джонс, Эли Муньос, Патрик Фишлер, Дарлен Хант, Мелисса Свит, Уэс Дэвис, Эндрю Уилсон, Марк Тернер, Кевин Клее, Джон Додсон, Джозеф Читхэм, Джейсон Шефер, Ричард Ридер, Лоуренс Кастилло, Турк Пипкин, Хезер Кафка, Кристофер М. Кампос, Роман Рамос

О фильме:
В результате вырождения интеллектуалов, неконтролируемого размножения людей с, мягко говоря, средними умственными возможностями, неправильной направленности научных исследований и деградации моральных ценностей, человечество тотально отупело к XXVI веку. Но, благодаря проводимому в наше время эксперименту по заморозке людей, в будущем оказываются военный и проститутка. Герои, казалось бы, не должны отличаться высоким уровнем интеллекта, да так и есть, но по меркам XXVI века они самые умные люди на планете. Теперь они должны спасти человечество от полного вымирания. Военный и проститутка — единственная и последняя надежда гибнущей цивилизации людей!




Страна: США
Студия: 20th Century Fox Film Corporation, Ternion Pictures
Продолжительность: 01:24:20
Перевод: Профессиональный многоголосый, авторский [seqw0]
*** Присутствует ненормативная лексика!

Файл
Кодек: AVC
Качество: WEB-DL 1080p
Видео: MPEG-4 AVC, 11.7 Mбит/с, 1920x1080, 23.976 кадр/с
Аудио #1: Русский (АС3, 6 ch, 448 Кбит/с, 48.0 KHz) Профессиональный (многоголосый, закадровый)
Аудио #2: Русский (АС3, 6 ch, 384 Кбит/с, 48.0 KHz) Aвторский (одноголосый, закадровый) seqw0 - ненормативная лексика
Аудио #3: Английский (АС3, 6 ch, 640 Кбит/с, 48.0 KHz)
Субтитры: Русские (ненормативная лексика), английские
Трейлер
MediaInfo
Источник: Idiocracy.2006.1080p.WEB.H264-SECRECY
General
Unique ID : 212617282734032805643076681087008195128 (0x9FF49961F8A187E992C6463725694238)
Complete name : Idiocracy.2006.WEB-DL.1080p.mkv
Format : Matroska
Format version : Version 4
File size : 7.76 GiB
Duration : 1 h 24 min
Overall bit rate : 13.2 Mb/s
Encoded date : UTC 2020-08-23 09:11:14
Writing application : mkvmerge v7.1.0 ('Good Love') 64bit built on Jul 27 2014 13:06:55
Writing library : libebml v1.3.0 + libmatroska v1.4.1

Video
ID : 1
Format : AVC
Format/Info : Advanced Video Codec
Format profile : [email protected]
Format settings : CABAC / 4 Ref Frames
Format settings, CABAC : Yes
Format settings, Reference fra : 4 frames
Codec ID : V_MPEG4/ISO/AVC
Duration : 1 h 24 min
Bit rate : 11.7 Mb/s
Width : 1 920 pixels
Height : 1 080 pixels
Display aspect ratio : 16:9
Frame rate mode : Constant
Frame rate : 23.976 (24000/1001) FPS
Color space : YUV
Chroma subsampling : 4:2:0
Bit depth : 8 bits
Scan type : Progressive
Bits/(Pixel*Frame) : 0.235
Stream size : 6.89 GiB (89%)
Language : English
Default : Yes
Forced : No
Color range : Limited
Color primaries : BT.709
Transfer characteristics : BT.709
Matrix coefficients : BT.709

Audio #1
ID : 2
Format : AC-3
Format/Info : Audio Coding 3
Commercial name : Dolby Digital
Codec ID : A_AC3
Duration : 1 h 24 min
Bit rate mode : Constant
Bit rate : 448 kb/s
Channel(s) : 6 channels
Channel layout : L R C LFE Ls Rs
Sampling rate : 48.0 kHz
Frame rate : 31.250 FPS (1536 SPF)
Compression mode : Lossy
Stream size : 270 MiB (3%)
Title : MVO
Language : Russian
Service kind : Complete Main
Default : Yes
Forced : No

Audio #2
ID : 3
Format : AC-3
Format/Info : Audio Coding 3
Commercial name : Dolby Digital
Codec ID : A_AC3
Duration : 1 h 24 min
Bit rate mode : Constant
Bit rate : 384 kb/s
Channel(s) : 6 channels
Channel layout : L R C LFE Ls Rs
Sampling rate : 48.0 kHz
Frame rate : 31.250 FPS (1536 SPF)
Compression mode : Lossy
Stream size : 232 MiB (3%)
Title : AVO [seqw0]
Language : Russian
Service kind : Complete Main
Default : No
Forced : No

Audio #3
ID : 4
Format : AC-3
Format/Info : Audio Coding 3
Commercial name : Dolby Digital
Codec ID : A_AC3
Duration : 1 h 24 min
Bit rate mode : Constant
Bit rate : 640 kb/s
Channel(s) : 6 channels
Channel layout : L R C LFE Ls Rs
Sampling rate : 48.0 kHz
Frame rate : 31.250 FPS (1536 SPF)
Compression mode : Lossy
Stream size : 386 MiB (5%)
Language : English
Service kind : Complete Main
Default : No
Forced : No

Text #1
ID : 5
Format : UTF-8
Codec ID : S_TEXT/UTF8
Codec ID/Info : UTF-8 Plain Text
Duration : 1 h 23 min
Bit rate : 125 b/s
Count of elements : 1124
Stream size : 76.3 KiB (0%)
Title : Full (ненормативная лексика)
Language : Russian
Default : No
Forced : No

Text #2
ID : 6
Format : UTF-8
Codec ID : S_TEXT/UTF8
Codec ID/Info : UTF-8 Plain Text
Duration : 1 h 23 min
Bit rate : 80 b/s
Count of elements : 1142
Stream size : 49.1 KiB (0%)
Title : English
Language : English
Default : No
Forced : No

Text #3
ID : 7
Format : UTF-8
Codec ID : S_TEXT/UTF8
Codec ID/Info : UTF-8 Plain Text
Duration : 1 h 23 min
Bit rate : 85 b/s
Count of elements : 1214
Stream size : 52.0 KiB (0%)
Title : English [SDH]
Language : English
Default : No
Forced : No

Menu
00:00:00.000 : en:Studio Logo
00:00:10.000 : en:Studio Logos
00:00:31.000 : en:Opening Credits
00:00:47.000 : en:Narrator of the Future Explains Human Evolution
00:01:41.000 : en:Two Very Different Couples Discuss Procreation
00:03:53.000 : en:Joe Gets Replaced & Opening Credits
00:05:13.000 : en:Collins Provides a Briefing
00:07:46.000 : en:Joe & Rita go into Human Hibernation
00:10:27.000 : en:The Human Hibernation Project is Forgotten
00:13:54.000 : en:Joe Awakens in a New World
00:17:06.000 : en:Joe Has a Realization
00:20:12.000 : en:Joe Is Taken into Custody
00:24:15.000 : en:Rita Gets Dogged
00:25:16.000 : en:Joe is Processed
00:27:25.000 : en:Joe Goes to Prison
00:29:48.000 : en:Joe Threatens Frito with Disbarment
00:33:03.000 : en:Joe Picks Up Rita
00:36:07.000 : en:Frito Leads Joe & Rita to the Time Machine
00:40:30.000 : en:Joe Meets the US Cabinet
00:42:43.000 : en:president Camacho Calls a Meeting
00:46:16.000 : en:Joe Becomes the Secretary of the Interior
00:49:17.000 : en:Joe Checks the Crops
00:50:58.000 : en:Joe and Rita Make a Run for it
00:52:24.000 : en:Joe Forms an Idea as to Why Crops Won't Grow
00:55:21.000 : en:Things Take a Turn
00:57:52.000 : en:Joe is Sentenced to Rehabilitation
00:59:31.000 : en:Joe Pleads with Rita
01:01:46.000 : en:Joe's Rehabilitation Commences
01:05:16.000 : en:Joe Continues Being Rehabilitated While Rita Hatches a Plan
01:08:53.000 : en:Joe Delivers a Message
01:12:37.000 : en:Everyone Celebrates
01:16:02.000 : en:Joe, Rita and Frito Go Through the Time Machine
01:17:02.000 : en:Joe Is Elected President
01:19:12.000 : en:End Credits
01:23:33.000 : en:Upgrayedd Goes Looking for Rita
Скриншоты
 

Вложения

  • 20,3 KB Просмотры: 0
    Личеров 0
    Сидеров 0
    Файлов 1
    Объем 7,8 GB

Привет!

Мы группа людей которые решили помочь другим в решении их проблем, а так же пользователям с поиском самых свежих и качественных инфопродуктов. За 4 с небольшим месяца мы создали этот форум на который заходят ежедневно тысячи человек и посещаемость постоянно растёт. Мы создали панель лицензирования для защиты PHP скриптов от воровства и SEO панель для мониторинга наших сайтов и выбора верной стратегии их развития. Мы надеемся что то что мы создали пригодится Вам и возможно Вы поможете нам развиваться и совершенствоваться вместе с Вами.

Статистика форума

Темы
406.698
Сообщения
465.162
Пользователи
84.793
Новый пользователь
vt7x2fyxlzwd

Приложения форума для iOS и Android


У ркн там нет власти ;)
Приватные разговоры
Помощь Пользователи
    Вы не присоединились ни к одной комнате.