За последнюю неделю опубликовано 150 новых материалов.
Инструкция новичку Путеводитель по форуму Прокси для Telegram Показать подсказки , это бомба!

Скачать И в бедности, и в богатстве / For Richer or Poorer (1997) WEB-DLRip-AVC | P2 | Open Matte бесплатно через торрент

  • Поучаствуй (в качестве покупателя) в любых пяти совместных покупках (кроме завершённых и "Моментальных") и получи группу "Новичок" навсегда -> ссылка на раздел
  • Получай до 480 рублей за каждого приглашенного пользователя!
    представляем Вам очередное расширение партнерской программы, подробности описаны тут -> ссылка
  • 90% материалов доступно к скачиванию после простой регистрации!
    Если же ты хочешь скачивать материалы без требования оставлять отзывы то получи группу "Новичок", 10 способов повышения описаны тут -> ссылка
  • К сожалению количество битых ссылок растет и мы уже не можем их оперативно восстанавливать поэтому просим помощи у каждого нашего пользователя.
    С сегодняшнего дня, за каждую восстановленную ссылку мы заплатим Вам.
    Подробнее тут -> ссылка
  • Перенесем твои заслуги с другого ресурса!
    Мы понимаем как сложно прокачивать аккаунты на форумах, вроде раскачал аккаунт, а тут появляется ресурс в 100 раз круче но тоже с системой прокачки и снова качать аккаунт...
    Предлагаем вам перенести Ваши заслуги на другом подобном ресурсе к нам.
    Подробности описаны тут -> ссылка
  • Вы можете получать по 2.5% с каждой покупки и продажи на маркете! Подробности в теме Партнёрская программа
Если Вы не хотите скачивать, Вы всегда можетепосмотретьонлайн, просто нажмите кнопку ниже :

Открыть плеер

Torrent_Bot

Торрент-Бот
Бот форума
4 Окт 2016
82
186
20

Информация о фильме
Название: И в бедности, и в богатстве
Оригинальное название: For Richer or Poorer
Год выхода: 1997
Жанр: комедия
Режиссер: Брайан Спайсер
В ролях: Тим Аллен, Кёрсти Элли, Кэрри Престон, Уэйн Найт, Джэй О. Сэндерс, Мигель А. Нуньес мл., Миган Кэвэна, Мария Мэйплз, Лэрри Миллер, Джон Капонера, Итэн Филлипс, Джон Пайпер-Фергюсон, Майкл Лернер

О фильме:
Брэд и Кэролин — супружеская пара, живущая в престижном районе Нью — Йорка. Однажды махинации бухгалтера семьи приводят к тому, что супруги оказываются должны налоговым органам более трех миллионов долларов. Брэд и Кэролин решают исчезнуть из города и для этого притворяются, что являются кузенами одной из семей из общины Амишей.



Выпущено: США / Sheinberg Productions, The Bubble Factory, Universal Pictures, Yorktown Productions
Продолжительность: 01:55:28
Перевод: Профессиональный (двухголосый, закадровый) х2
Субтитры: английские

Файл
Формат: Matroska
Качество: WEB-DLRip-AVC | Open Matte | Amazon *STARZ*
Видео: 1024x576 (16:9) at 23.976 fps, x264, ~2414 kbps, 0.171 bpp
Аудио #1: AC3, 2 ch, 192 Kbps - Русский (DVO R5)
Аудио #2: AC3, 2 ch, 192 Kbps - Русский (DVO SDI Media)
Формат субтитров: softsub (SRT)

***Релиз от:-=DoMiNo=-

M/I
x264 [info]: frame I:1388 Avg QP:16.79 size: 77426
x264 [info]: frame P:37392 Avg QP:18.08 size: 26186
x264 [info]: frame B:127298 Avg QP:20.79 size: 7886

General
Format : Matroska
Format version : Version 4
File size : 2.26 GiB
Duration : 1 h 55 min
Overall bit rate : 2 800 kb/s
Movie name : И в бедности, и в богатстве.(1997).WEB-DLRip-AVC.O.M.[-=DoMiNo=-]
Encoded date : UTC 2020-05-23 12:15:15
Writing application : mkvmerge v46.0.0 ('No Deeper Escape') 64-bit
Writing library : libebml v1.3.10 + libmatroska v1.5.2
Cover : Yes
Attachments : cover.jpg / cover 2.jpg

Video
ID : 1
Format : AVC
Format/Info : Advanced Video Codec
Format profile : [email protected]
Format settings : CABAC / 12 Ref Frames
Format settings, CABAC : Yes
Format settings, Reference : 12 frames
Codec ID : V_MPEG4/ISO/AVC
Duration : 1 h 55 min
Bit rate : 2 414 kb/s
Width : 1 024 pixels
Height : 576 pixels
Display aspect ratio : 16:9
Frame rate mode : Constant
Frame rate : 23.976 (24000/1001) FPS
Color space : YUV
Chroma subsampling : 4:2:0
Bit depth : 8 bits
Scan type : Progressive
Bits/(Pixel*Frame) : 0.171
Stream size : 1.95 GiB (86%)
Title : RIP BY -=DoMiNo=- | Open Matte
Writing library : x264 core 160 r3000 33f9e14
Encoding settings : cabac=1 / ref=12 / deblock=1:-3:-3 / analyse=0x3:0x133 / me=umh / subme=10 / psy=1 / psy_rd=1.00:0.00 / mixed_ref=1 / me_range=32 / chroma_me=1 / trellis=2 / 8x8dct=1 / cqm=0 / deadzone=21,11 / fast_pskip=0 / chroma_qp_offset=-2 / threads=6 / lookahead_threads=1 / sliced_threads=0 / nr=0 / decimate=1 / interlaced=0 / bluray_compat=0 / constrained_intra=0 / bframes=8 / b_pyramid=2 / b_adapt=2 / b_bias=0 / direct=1 / weightb=1 / open_gop=0 / weightp=2 / keyint=250 / keyint_min=23 / scenecut=40 / intra_refresh=0 / rc_lookahead=60 / rc=crf / mbtree=0 / crf=18.0 / qcomp=0.60 / qpmin=0 / qpmax=69 / qpstep=4 / vbv_maxrate=50000 / vbv_bufsize=62500 / crf_max=0.0 / nal_hrd=none / filler=0 / ip_ratio=1.40 / pb_ratio=1.30 / aq=3:0.80
Language : English
Default : Yes
Forced : No
Color range : Limited
Color primaries : BT.709
Transfer characteristics : BT.709
Matrix coefficients : BT.709

Audio #1
ID : 2
Format : AC-3
Format/Info : Audio Coding 3
Commercial name : Dolby Digital
Codec ID : A_AC3
Duration : 1 h 55 min
Bit rate mode : Constant
Bit rate : 192 kb/s
Channel(s) : 2 channels
Channel layout : L R
Sampling rate : 48.0 kHz
Frame rate : 31.250 FPS (1536 SPF)
Compression mode : Lossy
Stream size : 159 MiB (7%)
Title : DVO R5
Language : Russian
Service kind : Complete Main
Default : Yes
Forced : No

Audio #2
ID : 3
Format : AC-3
Format/Info : Audio Coding 3
Commercial name : Dolby Digital
Codec ID : A_AC3
Duration : 1 h 55 min
Bit rate mode : Constant
Bit rate : 192 kb/s
Channel(s) : 2 channels
Channel layout : L R
Sampling rate : 48.0 kHz
Frame rate : 31.250 FPS (1536 SPF)
Compression mode : Lossy
Stream size : 159 MiB (7%)
Title : DVO SDI Media
Language : Russian
Service kind : Complete Main
Default : No
Forced : No

Text
ID : 4
Format : UTF-8
Codec ID : S_TEXT/UTF8
Codec ID/Info : UTF-8 Plain Text
Duration : 1 h 53 min
Bit rate : 74 b/s
Count of elements : 1616
Stream size : 61.4 KiB (0%)
Title : SDH
Language : English
Default : No
Forced : No

Menu
00:00:00.000 : en:Глава 01
00:05:30.000 : en:Глава 02
00:11:00.000 : en:Глава 03
00:16:30.000 : en:Глава 04
00:22:00.000 : en:Глава 05
00:27:30.000 : en:Глава 06
00:33:00.000 : en:Глава 07
00:38:30.000 : en:Глава 08
00:44:00.000 : en:Глава 09
00:49:30.000 : en:Глава 10
00:55:00.000 : en:Глава 11
01:00:30.000 : en:Глава 12
01:06:00.000 : en:Глава 13
01:11:30.000 : en:Глава 14
01:17:00.000 : en:Глава 15
01:22:30.000 : en:Глава 16
01:28:00.000 : en:Глава 17
01:33:30.000 : en:Глава 18
01:39:00.000 : en:Глава 19
01:44:30.000 : en:Глава 20
01:50:00.000 : en:Глава 21
Примечание & Сравнения:
Исходник видео WEB-DL Amazon STARZ (периодически появляется логотип).
Open Matte-версия фильма имеет большее наполнение кадра по сравнению с Blu-ray.

[URL="http://www.framecompare.com/image-compare/screenshotcomparison/999J1NNU" target="_blank">***Сравнения => BD vs WEB-DL Open Matte
Скриншоты
 

Вложения

  • 91,5 KB Просмотры: 0
    Личеров 0
    Сидеров 0
    Файлов 1
    Объем 2,3 GB

Привет!

Мы группа людей которые решили помочь другим в решении их проблем, а так же пользователям с поиском самых свежих и качественных инфопродуктов. За 4 с небольшим месяца мы создали этот форум на который заходят ежедневно тысячи человек и посещаемость постоянно растёт. Мы создали панель лицензирования для защиты PHP скриптов от воровства и SEO панель для мониторинга наших сайтов и выбора верной стратегии их развития. Мы надеемся что то что мы создали пригодится Вам и возможно Вы поможете нам развиваться и совершенствоваться вместе с Вами.

Статистика форума

Темы
412.341
Сообщения
471.459
Пользователи
91.887
Новый пользователь
mergoroda13

Приложения форума для iOS и Android


У ркн там нет власти ;)
Приватные разговоры
Помощь Пользователи
    Вы не присоединились ни к одной комнате.