За последнюю неделю опубликовано 66 новых материалов.
Инструкция новичку Путеводитель по форуму Прокси для Telegram Показать подсказки , это бомба!

Скачать И в бедности, и в богатстве / For Richer or Poorer (1997) BDRip 720p от msltel | P2 бесплатно через торрент

  • Поучаствуй (в качестве покупателя) в любых пяти совместных покупках (кроме завершённых и "Моментальных") и получи группу "Новичок" навсегда -> ссылка на раздел
  • Получай до 480 рублей за каждого приглашенного пользователя!
    представляем Вам очередное расширение партнерской программы, подробности описаны тут -> ссылка
  • 90% материалов доступно к скачиванию после простой регистрации!
    Если же ты хочешь скачивать материалы без требования оставлять отзывы то получи группу "Новичок", 10 способов повышения описаны тут -> ссылка
  • К сожалению количество битых ссылок растет и мы уже не можем их оперативно восстанавливать поэтому просим помощи у каждого нашего пользователя.
    С сегодняшнего дня, за каждую восстановленную ссылку мы заплатим Вам.
    Подробнее тут -> ссылка
  • Перенесем твои заслуги с другого ресурса!
    Мы понимаем как сложно прокачивать аккаунты на форумах, вроде раскачал аккаунт, а тут появляется ресурс в 100 раз круче но тоже с системой прокачки и снова качать аккаунт...
    Предлагаем вам перенести Ваши заслуги на другом подобном ресурсе к нам.
    Подробности описаны тут -> ссылка
  • Вы можете получать по 2.5% с каждой покупки и продажи на маркете! Подробности в теме Партнёрская программа
Если Вы не хотите скачивать, Вы всегда можетепосмотретьонлайн, просто нажмите кнопку ниже :

Открыть плеер

Torrent_Bot

Торрент-Бот
Бот форума
4 Окт 2016
92
163
20



Название: И в бедности, и в богатстве
Оригинальное название: For Richer or Poorer
Год выпуска: 1997
Страна: США
Жанр: комедия
Продолжительность: 01:55:27
Перевод: профессиональный двухголосый
Режиссер: Брайан Спайсер
В ролях: Тим Аллен, Кёрсти Элли, Кэрри Престон, Уэйн Найт, Джэй О. Сэндерс, Мигель А. Нуньес мл., Миган Кэвэна, Мария Мэйплз, Ларри Миллер, Джон Капонера, Итэн Филлипс, Джон Пайпер-Фергюсон, Майкл Лернер

О фильме: Брэд и Кэролайн Секстоны были невероятно богаты и очень несчастны в браке, пока не произошло немыслимое: их собственный бухгалтер ограбил их подчистую. И вот теперь они спасаются от Федеральной налоговой службы, спрятавшись там, где никому не придёт в голову искать их, — в общине американских менонитов. Пока их адвокат пытается разобраться с проблемами в Нью-Йорке, они делают всё возможное, чтобы слиться со своим окружением и стать незаметными. Трудная работа может оказаться гораздо тяжелее сложной ситуации, и Секстоны в этом убеждаются, когда им приходится учиться доить коров, вспахивать поле и… заново влюбляться друг в друга...



Качество: BDRip 720p
Формат: MKV
Видео: MPEG-4 AVC, 4301 Кбит/с, 1280х546, 23.976 Кадр/с
Аудио 1: русский, AC3, 192 kbps, 2 ch, 48 kHz [закадровый двухголосый, R5]
Аудио 2: русский, AC3, 192 kbps, 2 ch, 48 kHz [закадровый двухголосый, SDI Media]
Аудио 3: английский, AC3, 448 kbps, 6 ch, 48 kHz [оригинал]
Субтитры: английские
Главы/чаптеры

MediaInfo
Общее
Уникальный идентификатор : 193439082171029123312100069623562584659 (0x9187031777075321BAE5CBA98B014253)
Полное имя : D:VideoИ в бедности, и в богатстве.1997.BDRip 720p msltel.mkv
Формат : Matroska
Версия формата : Version 4
Размер файла : 4,14 Гбайт
Продолжительность : 1 ч. 55 м.
Общий поток : 5 135 Кбит/сек
Название фильма : Rip msltel
Дата кодирования : UTC 2020-07-16 02:10:45
Программа кодирования : mkvmerge v8.2.0 ('World of Adventure') 64bit
Библиотека кодирования : libebml v1.3.1 + libmatroska v1.4.2

Видео
Идентификатор : 1
Формат : AVC
Формат/Информация : Advanced Video Codec
Профиль формата : [email protected]
Настройки формата : CABAC / 11 Ref Frames
Параметр CABAC формата : Да
Параметр RefFrames формата : 11 кадров
Идентификатор кодека : V_MPEG4/ISO/AVC
Продолжительность : 1 ч. 55 м.
Битрейт : 4 301 Кбит/сек
Ширина : 1 280 пикселей
Высота : 546 пикселей
Соотношение сторон : 2,35:1
Режим частоты кадров : Постоянный
Частота кадров : 23,976 (24000/1001) кадра/сек
Цветовое пространство : YUV
Субдискретизация насыщенности : 4:2:0
Битовая глубина : 8 бит
Тип развёртки : Прогрессивная
Бит/(Пиксели*Кадры) : 0.257
Размер потока : 3,47 Гбайт (84%)
Библиотека кодирования : x264 core 159 r2991 1771b55
Настройки программы : cabac=1 / ref=11 / deblock=1:-2:-2 / analyse=0x3:0x113 / me=umh / subme=11 / psy=1 / psy_rd=1.00:0.15 / mixed_ref=1 / me_range=32 / chroma_me=1 / trellis=2 / 8x8dct=1 / cqm=0 / deadzone=21,11 / fast_pskip=0 / chroma_qp_offset=-3 / threads=6 / lookahead_threads=1 / sliced_threads=0 / nr=0 / decimate=1 / interlaced=0 / bluray_compat=0 / constrained_intra=0 / bframes=8 / b_pyramid=2 / b_adapt=2 / b_bias=0 / direct=1 / weightb=1 / open_gop=0 / weightp=2 / keyint=230 / keyint_min=23 / scenecut=40 / intra_refresh=0 / rc_lookahead=40 / rc=crf / mbtree=1 / crf=17.0 / qcomp=0.60 / qpmin=0 / qpmax=69 / qpstep=4 / vbv_maxrate=50000 / vbv_bufsize=62500 / crf_max=0.0 / nal_hrd=none / filler=0 / ip_ratio=1.40 / aq=1:1.00
Язык : English
Default : Да
Forced : Нет

Аудио #1
Идентификатор : 2
Формат : AC-3
Формат/Информация : Audio Coding 3
Коммерческое название : Dolby Digital
Идентификатор кодека : A_AC3
Продолжительность : 1 ч. 55 м.
Вид битрейта : Постоянный
Битрейт : 192 Кбит/сек
Каналы : 2 канала
Channel layout : L R
Частота : 48,0 КГц
Частота кадров : 31,250 кадров/сек (1536 SPF)
Метод сжатия : С потерями
Размер потока : 159 Мбайт (4%)
Заголовок : DVO R5
Язык : Russian
Service kind : Complete Main
Default : Да
Forced : Нет

Аудио #2
Идентификатор : 3
Формат : AC-3
Формат/Информация : Audio Coding 3
Коммерческое название : Dolby Digital
Идентификатор кодека : A_AC3
Продолжительность : 1 ч. 55 м.
Вид битрейта : Постоянный
Битрейт : 192 Кбит/сек
Каналы : 2 канала
Channel layout : L R
Частота : 48,0 КГц
Частота кадров : 31,250 кадров/сек (1536 SPF)
Метод сжатия : С потерями
Размер потока : 159 Мбайт (4%)
Заголовок : DVO SDI Media
Язык : Russian
Service kind : Complete Main
Default : Нет
Forced : Нет

Аудио #3
Идентификатор : 4
Формат : AC-3
Формат/Информация : Audio Coding 3
Коммерческое название : Dolby Digital
Идентификатор кодека : A_AC3
Продолжительность : 1 ч. 55 м.
Вид битрейта : Постоянный
Битрейт : 448 Кбит/сек
Каналы : 6 каналов
Channel layout : L R C LFE Ls Rs
Частота : 48,0 КГц
Частота кадров : 31,250 кадров/сек (1536 SPF)
Метод сжатия : С потерями
Размер потока : 370 Мбайт (9%)
Заголовок : оригинал
Язык : English
Service kind : Complete Main
Default : Нет
Forced : Нет

Текст
Идентификатор : 5
Формат : UTF-8
Идентификатор кодека : S_TEXT/UTF8
Идентификатор кодека/Информация : UTF-8 Plain Text
Продолжительность : 1 ч. 50 м.
Битрейт : 70 бит/сек
Count of elements : 1699
Размер потока : 57,2 Кбайт (0%)
Заголовок : английские
Язык : English
Default : Нет
Forced : Нет

Меню
00:00:00.000 : en:Глава 01
00:10:00.600 : en:Глава 02
00:20:01.200 : en:Глава 03
00:30:01.800 : en:Глава 04
00:40:02.400 : en:Глава 05
00:50:03.000 : en:Глава 06
01:00:03.600 : en:Глава 07
01:10:04.200 : en:Глава 08
01:20:04.800 : en:Глава 09
01:30:05.400 : en:Глава 10
01:40:06.000 : en:Глава 11
01:50:06.600 : en:Глава 12
01:55:26.085 : en:Глава 13
 

Вложения

  • 21,6 KB Просмотры: 0
    Личеров 0
    Сидеров 0
    Файлов 1
    Объем 4,1 GB

Привет!

Мы группа людей которые решили помочь другим в решении их проблем, а так же пользователям с поиском самых свежих и качественных инфопродуктов. За 4 с небольшим месяца мы создали этот форум на который заходят ежедневно тысячи человек и посещаемость постоянно растёт. Мы создали панель лицензирования для защиты PHP скриптов от воровства и SEO панель для мониторинга наших сайтов и выбора верной стратегии их развития. Мы надеемся что то что мы создали пригодится Вам и возможно Вы поможете нам развиваться и совершенствоваться вместе с Вами.

Статистика форума

Темы
406.677
Сообщения
465.122
Пользователи
84.734
Новый пользователь
andrey564

Приложения форума для iOS и Android


У ркн там нет власти ;)
Приватные разговоры
Помощь Пользователи
    Вы не присоединились ни к одной комнате.