За последнюю неделю опубликовано 20 новых материалов.
Инструкция новичку Путеводитель по форуму Прокси для Telegram Показать подсказки , это бомба!

Скачать И проиграли бой / In Dubious Battle (2016) HDRip от Portablius | D бесплатно через торрент

  • Поучаствуй (в качестве покупателя) в любых пяти совместных покупках (кроме завершённых и "Моментальных") и получи группу "Новичок" навсегда -> ссылка на раздел
  • Получай до 480 рублей за каждого приглашенного пользователя!
    представляем Вам очередное расширение партнерской программы, подробности описаны тут -> ссылка
  • 90% материалов доступно к скачиванию после простой регистрации!
    Если же ты хочешь скачивать материалы без требования оставлять отзывы то получи группу "Новичок", 10 способов повышения описаны тут -> ссылка
  • К сожалению количество битых ссылок растет и мы уже не можем их оперативно восстанавливать поэтому просим помощи у каждого нашего пользователя.
    С сегодняшнего дня, за каждую восстановленную ссылку мы заплатим Вам.
    Подробнее тут -> ссылка
  • Перенесем твои заслуги с другого ресурса!
    Мы понимаем как сложно прокачивать аккаунты на форумах, вроде раскачал аккаунт, а тут появляется ресурс в 100 раз круче но тоже с системой прокачки и снова качать аккаунт...
    Предлагаем вам перенести Ваши заслуги на другом подобном ресурсе к нам.
    Подробности описаны тут -> ссылка
  • Вы можете получать по 2.5% с каждой покупки и продажи на маркете! Подробности в теме Партнёрская программа
Если Вы не хотите скачивать, Вы всегда можетепосмотретьонлайн, просто нажмите кнопку ниже :

Открыть плеер

Torrent_Bot

Торрент-Бот
Бот форума
4 Окт 2016
93
156
20
Информация о фильме
Название: И проиграли бой
Оригинальное название: In Dubious Battle
Год выхода: 2016
Жанр: Драма
Режиссер: Джеймс Франко
В ролях: Джеймс Франко, Брайан Крэнстон, Роберт Дювалл, Эд Харрис, Селена Гомес, Нат Вулф, Винсент Д`Онофрио, Ана О’Райли, Анали Типтон, Джек Келер

О фильме: 1930 год. Решающий момент в истории США — рабочие по всей стране начинают создавать профсоюзы для защиты своих прав, пытаются бороться за лучшее обращение и достойную заработную плату. В Калифорнийской долине между мигрантами-сборщиками яблок и членами ассоциации местных овощеводов возникает трудовой конфликт. Активист «Партии» Джим Нолан, понимая важность организованного труда, начинает участвовать в рабочем движении и организовывает крупную забастовку с участием около 900 сборщиков яблок, чтобы привлечь больше людей к своему делу.



Страна: США
Студия: Ambi Pictures, RabbitBandini Productions
Продолжительность: 01:53:37
Перевод: Дубляж [официальный звук]
Субтитры: Нет

Файл
Кодек: XviD
Качество: HDRip
Видео: 688x288 (2.39:1), 23.976 fps, XviD build 73 ~780 kbps avg, 0.16 bit/pixel
Звук: 48 kHz, MPEG Layer 3, 2 ch, ~128.00 kbps avg

MediaInfo
General
Complete name : In.Dubious.Battle.2016.HDRip.ot.Portablius.avi
Format : AVI
Format/Info : Audio Video Interleave
File size : 746 MiB
Duration : 1 h 53 min
Overall bit rate : 918 kb/s
Writing application : VirtualDubMod 1.5.10.3 | www.virtualdub-fr.org || (build 2550/release)
Writing library : VirtualDubMod build 2550/release

Video
ID : 0
Format : MPEG-4 Visual
Format profile : Advanced [email protected]
Format settings, BVOP : 1
Format settings, QPel : No
Format settings, GMC : No warppoints
Format settings, Matrix : Custom
Codec ID : XVID
Codec ID/Hint : XviD
Duration : 1 h 53 min
Bit rate : 781 kb/s
Width : 688 pixels
Height : 288 pixels
Display aspect ratio : 2.40:1
Frame rate : 23.976 (24000/1001) FPS
Color space : YUV
Chroma subsampling : 4:2:0
Bit depth : 8 bits
Scan type : Progressive
Compression mode : Lossy
Bits/(Pixel*Frame) : 0.164
Stream size : 634 MiB (85%)
Writing library : XviD 73

Audio
ID : 1
Format : MPEG Audio
Format version : Version 1
Format profile : Layer 3
Codec ID : 55
Codec ID/Hint : MP3
Duration : 1 h 53 min
Bit rate mode : Constant
Bit rate : 128 kb/s
Channel(s) : 2 channels
Sampling rate : 48.0 kHz
Compression mode : Lossy
Stream size : 104 MiB (14%)
Alignment : Aligned on interleaves
Interleave, duration : 42 ms (1.00 video frame)
Interleave, preload duratio : 504 ms
Writing library : LAME3.99r
Encoding settings : -m s -V 4 -q 2 -lowpass 17 -b 128
Скриншоты
 

Вложения

  • 15,5 KB Просмотры: 1
    Личеров 0
    Сидеров 0
    Файлов 1
    Объем 746,1 MB

Привет!

Мы группа людей которые решили помочь другим в решении их проблем, а так же пользователям с поиском самых свежих и качественных инфопродуктов. За 4 с небольшим месяца мы создали этот форум на который заходят ежедневно тысячи человек и посещаемость постоянно растёт. Мы создали панель лицензирования для защиты PHP скриптов от воровства и SEO панель для мониторинга наших сайтов и выбора верной стратегии их развития. Мы надеемся что то что мы создали пригодится Вам и возможно Вы поможете нам развиваться и совершенствоваться вместе с Вами.

Статистика форума

Темы
406.554
Сообщения
464.754
Пользователи
83.530
Новый пользователь
Dfghhuu77

Приложения форума для iOS и Android


У ркн там нет власти ;)
Приватные разговоры
Помощь Пользователи
    Вы не присоединились ни к одной комнате.