За последнюю неделю опубликовано 57 новых материалов.
Инструкция новичку Путеводитель по форуму Прокси для Telegram Показать подсказки , это бомба!

Скачать И проиграли бой / In Dubious Battle (2016) BDRip 1080p | D бесплатно через торрент

  • Поучаствуй (в качестве покупателя) в любых пяти совместных покупках (кроме завершённых и "Моментальных") и получи группу "Новичок" навсегда -> ссылка на раздел
  • Получай до 480 рублей за каждого приглашенного пользователя!
    представляем Вам очередное расширение партнерской программы, подробности описаны тут -> ссылка
  • 90% материалов доступно к скачиванию после простой регистрации!
    Если же ты хочешь скачивать материалы без требования оставлять отзывы то получи группу "Новичок", 10 способов повышения описаны тут -> ссылка
  • К сожалению количество битых ссылок растет и мы уже не можем их оперативно восстанавливать поэтому просим помощи у каждого нашего пользователя.
    С сегодняшнего дня, за каждую восстановленную ссылку мы заплатим Вам.
    Подробнее тут -> ссылка
  • Перенесем твои заслуги с другого ресурса!
    Мы понимаем как сложно прокачивать аккаунты на форумах, вроде раскачал аккаунт, а тут появляется ресурс в 100 раз круче но тоже с системой прокачки и снова качать аккаунт...
    Предлагаем вам перенести Ваши заслуги на другом подобном ресурсе к нам.
    Подробности описаны тут -> ссылка
  • Вы можете получать по 2.5% с каждой покупки и продажи на маркете! Подробности в теме Партнёрская программа
Если Вы не хотите скачивать, Вы всегда можетепосмотретьонлайн, просто нажмите кнопку ниже :

Открыть плеер

Torrent_Bot

Торрент-Бот
Бот форума
4 Окт 2016
92
163
20

Название: И проиграли бой
Оригинальное название: In Dubious Battle
Год выхода: 2016
Страна: США
Студия: Thats Hollywood, Ambi Pictures, RabbitBandini Productions
Продолжительность: 01:53:27
Жанр: драма

Режиссер: Джеймс Франко
В ролях: Джеймс Франко, Брайан Крэнстон, Роберт Дювалл, Эд Харрис, Селена Гомес, Нат Вулф, Винсент Д`Онофрио, Ана О’Райли, Анали Типтон, Джек Келер, ...

Перевод: профессиональный (дублированный) Мосфильм-Мастер

О фильме: 1930 год. Решающий момент в истории США — рабочие по всей стране начинают создавать профсоюзы для защиты своих прав, пытаются бороться за лучшее обращение и достойную заработную плату. В Калифорнийской долине между мигрантами-сборщиками яблок и членами ассоциации местных овощеводов возникает трудовой конфликт. Активист «Партии» Джим Нолан, понимая важность организованного труда, начинает участвовать в рабочем движении и организовывает крупную забастовку с участием около 900 сборщиков яблок, чтобы привлечь больше людей к своему делу…





Кодек: x264
Качество: BDRip 1080p
Видео: 1920x800 , 8000 kbps, 23,976 fps
Аудио #1: AC-3, 2 ch, 192 kbps (Rus) - Dub Мосфильм-Мастер
Аудио #2: AC-3, 6 ch, 448 kbps (Eng)
Субтитры: английские

Дополнительная информация
За исходник спасибо - BenderBEST
MediaInfo
x264 [info]: frame I:1065 Avg QP:12.78 size:168507
x264 [info]: frame P:38111 Avg QP:15.31 size: 76253
x264 [info]: frame B:134256 Avg QP:16.64 size: 30910
x264 [info]: consecutive B-frames: 2.5% 3.1% 6.7% 29.4% 15.4% 17.1% 6.7% 9.4% 3.9% 0.9% 0.5% 0.5% 4.0%

Общее
Уникальный идентификатор : 246184299059272989996817589932457484007 (0xB9355F101D132FC796C145C7D1405EE7)
Полное имя : И проиграли бой (In Dubious Battle) 2016 BDRip 1080p.mkv
Формат : Matroska
Версия формата : Version 2
Размер файла : 7,01 Гбайт
Продолжительность : 1 ч. 53 м.
Общий поток : 8842 Кбит/сек
Дата кодирования : UTC 2020-06-17 11:52:24
Программа кодирования : mkvmerge v4.0.0 ('The Stars were mine') сборка от Jun 6 2010 16:18:42
Библиотека кодирования : libebml v1.0.0 + libmatroska v1.0.0

Видео
Идентификатор : 1
Формат : AVC
Формат/Информация : Advanced Video Codec
Профиль формата : [email protected]
Параметр CABAC формата : Да
Параметр ReFrames формата : 5 кадров
Идентификатор кодека : V_MPEG4/ISO/AVC
Продолжительность : 1 ч. 53 м.
Битрейт : 8026 Кбит/сек
Ширина : 1920 пикселей
Высота : 800 пикселей
Соотношение сторон : 2,40:1
Режим частоты кадров : Постоянный
Частота кадров : 23,976 (24000/1001) кадра/сек
Цветовое пространство : YUV
Субдискретизация насыщенности : 4:2:0
Битовая глубина : 8 бит
Тип развёртки : Прогрессивная
Бит/(Пиксели*Кадры) : 0.218
Размер потока : 6,36 Гбайт (91%)
Язык : English
Default : Нет
Forced : Нет

Аудио #1
Идентификатор : 2
Формат : AC-3
Формат/Информация : Audio Coding 3
Расширение режима : CM (complete main)
Параметр Endianness формата : Big
Идентификатор кодека : A_AC3
Продолжительность : 1 ч. 53 м.
Вид битрейта : Постоянный
Битрейт : 192 Кбит/сек
Каналы : 2 канала
Расположение каналов : Front: L R
Частота : 48,0 КГц
Частота кадров : 31,250 кадров/сек (1536 spf)
Метод сжатия : С потерями
Размер потока : 156 Мбайт (2%)
Заголовок : Dub Мосфильм-Мастер
Язык : Russian
Default : Нет
Forced : Нет

Аудио #2
Идентификатор : 3
Формат : AC-3
Формат/Информация : Audio Coding 3
Расширение режима : CM (complete main)
Параметр Endianness формата : Big
Идентификатор кодека : A_AC3
Продолжительность : 1 ч. 53 м.
Вид битрейта : Постоянный
Битрейт : 448 Кбит/сек
Каналы : 6 каналов
Расположение каналов : Front: L C R, Side: L R, LFE
Частота : 48,0 КГц
Частота кадров : 31,250 кадров/сек (1536 spf)
Метод сжатия : С потерями
Размер потока : 364 Мбайт (5%)
Язык : English
Default : Нет
Forced : Нет

Текст #1
Идентификатор : 4
Формат : UTF-8
Идентификатор кодека : S_TEXT/UTF8
Идентификатор кодека/Информация : UTF-8 Plain Text
Язык : English
Default : Нет
Forced : Нет

Текст #2
Идентификатор : 5
Формат : UTF-8
Идентификатор кодека : S_TEXT/UTF8
Идентификатор кодека/Информация : UTF-8 Plain Text
Заголовок : SDH
Язык : English
Default : Нет
Forced : Нет

 

Вложения

  • 36 KB Просмотры: 0
    Личеров 0
    Сидеров 0
    Файлов 1
    Объем 7 GB

Привет!

Мы группа людей которые решили помочь другим в решении их проблем, а так же пользователям с поиском самых свежих и качественных инфопродуктов. За 4 с небольшим месяца мы создали этот форум на который заходят ежедневно тысячи человек и посещаемость постоянно растёт. Мы создали панель лицензирования для защиты PHP скриптов от воровства и SEO панель для мониторинга наших сайтов и выбора верной стратегии их развития. Мы надеемся что то что мы создали пригодится Вам и возможно Вы поможете нам развиваться и совершенствоваться вместе с Вами.

Статистика форума

Темы
406.698
Сообщения
465.162
Пользователи
84.790
Новый пользователь
wesennijh

Приложения форума для iOS и Android


У ркн там нет власти ;)
Приватные разговоры
Помощь Пользователи
    Вы не присоединились ни к одной комнате.