За последнюю неделю опубликовано 73 новых материалов.
Инструкция новичку Путеводитель по форуму Прокси для Telegram Показать подсказки , это бомба!

Скачать И наступит тьма / And Soon the Darkness (2010) BDRemux 1080p | A бесплатно через торрент

  • Поучаствуй (в качестве покупателя) в любых пяти совместных покупках (кроме завершённых и "Моментальных") и получи группу "Новичок" навсегда -> ссылка на раздел
  • Получай до 480 рублей за каждого приглашенного пользователя!
    представляем Вам очередное расширение партнерской программы, подробности описаны тут -> ссылка
  • 90% материалов доступно к скачиванию после простой регистрации!
    Если же ты хочешь скачивать материалы без требования оставлять отзывы то получи группу "Новичок", 10 способов повышения описаны тут -> ссылка
  • К сожалению количество битых ссылок растет и мы уже не можем их оперативно восстанавливать поэтому просим помощи у каждого нашего пользователя.
    С сегодняшнего дня, за каждую восстановленную ссылку мы заплатим Вам.
    Подробнее тут -> ссылка
  • Перенесем твои заслуги с другого ресурса!
    Мы понимаем как сложно прокачивать аккаунты на форумах, вроде раскачал аккаунт, а тут появляется ресурс в 100 раз круче но тоже с системой прокачки и снова качать аккаунт...
    Предлагаем вам перенести Ваши заслуги на другом подобном ресурсе к нам.
    Подробности описаны тут -> ссылка
  • Вы можете получать по 2.5% с каждой покупки и продажи на маркете! Подробности в теме Партнёрская программа
Если Вы не хотите скачивать, Вы всегда можетепосмотретьонлайн, просто нажмите кнопку ниже :

Открыть плеер

Torrent_Bot

Торрент-Бот
Бот форума
4 Окт 2016
102
157
20




Название: И наступит тьма
Оригинальное название: And Soon the Darkness
Год выхода: 2010
Жанр: Триллер
Режиссер: Маркос Эфрон
В ролях: Эмбер Хёрд, Одетт Эннэйбл (Юстман), Карл Урбан, Сесар Вианко, Мишель Нойер, Адриана Барраса, Луис Сабатини, Даниэль Фигуерейдо, Хорхе Бут, Джина Мантенья

О фильме:
Действие фильма разворачивается в Аргентине. Две американские девушки путешествуют на велосипедах по отдаленным территориям страны. Когда одна из них исчезает, у второй остается совсем немного времени до наступления темноты, чтобы найти ее. Ночные кошмары не заставят себя ждать.




Страна: США, Аргентина, Франция
Студия: Studio Canal, Abandon Pictures
Продолжительность: 01:31:16
Перевод: Авторский (одноголосый)
Субтитры: Russian (full)

Формат: MKV
Качество: BDRemux 1080p
Видео: MPEG4/AVC/H.264 / 1920x1080 / 29.9 Mbps / 23.976 fps
Звук:
Russian: DTS-HD Master Audio / 5.1 / 48 kHz / 3640 kbps - Вячеслав Zamez
English: Dolby TrueHD Audio / 5.1 / 48 kHz / 3162 kbps - Оригинальный

MediaInfo
Format : Matroska
Format version : Version 4 / Version 2
File size : 23.4 GiB
Duration : 1 h 31 min
Overall bit rate mode : Variable
Overall bit rate : 36.7 Mb/s
Movie name : И наступит тьма / And Soon the Darkness (2010) BDRemux 1080p | =Ved-Uk=
Encoded date : UTC 2019-06-11 20:13:20
Writing application : mkvmerge v22.0.0 ('At The End Of The World') 64-bit
Writing library : libebml v1.3.5 + libmatroska v1.4.8

Video
ID : 1
Format : AVC
Format/Info : Advanced Video Codec
Format profile : High@L4.1
Format settings, CABAC : Yes
Format settings, RefFrames : 2 frames
Codec ID : V_MPEG4/ISO/AVC
Duration : 1 h 31 min
Bit rate mode : Variable
Bit rate : 29.9 Mb/s
Width : 1 920 pixels
Height : 1 080 pixels
Display aspect ratio : 16:9
Frame rate mode : Constant
Frame rate : 23.976 (24000/1001) FPS
Color space : YUV
Chroma subsampling : 4:2:0
Bit depth : 8 bits
Scan type : Progressive
Bits/(Pixel*Frame) : 0.601
Stream size : 19.0 GiB (81%)
Title : И наступит тьма / And Soon the Darkness (2010)
Language : English
Default : Yes
Forced : No

Audio #1
ID : 2
Format : DTS
Format/Info : Digital Theater Systems
Format profile : MA / Core
Mode : 16
Format settings, Endianness : Big
Codec ID : A_DTS
Duration : 1 h 31 min
Bit rate mode : Variable / Constant
Bit rate : 3 640 kb/s / 1 509 kb/s
Channel(s) : 6 channels
Channel positions : Front: L C R, Side: L R, LFE
Sampling rate : 48.0 kHz
Frame rate : 93.750 FPS (512 SPF)
Bit depth : 24 bits
Compression mode : Lossless / Lossy
Stream size : 2.32 GiB (10%)
Title : Вячеслав Zamez
Language : Russian
Default : Yes
Forced : No

Audio #2
ID : 3
Format : TrueHD
Codec ID : A_TRUEHD
Duration : 1 h 31 min
Bit rate mode : Variable
Bit rate : 3 162 kb/s
Maximum bit rate : 4 512 kb/s
Channel(s) : 6 channels
Channel positions : Front: L C R, Side: L R, LFE
Sampling rate : 48.0 kHz
Frame rate : 1 200.000 FPS (40 SPF)
Compression mode : Lossless
Stream size : 2.02 GiB (9%)
Title : Оригинал
Language : English
Default : No
Forced : No

Text
ID : 4
Format : UTF-8
Codec ID : S_TEXT/UTF8
Codec ID/Info : UTF-8 Plain Text
Duration : 1 h 30 min
Bit rate : 46 b/s
Count of elements : 723
Stream size : 31.2 KiB (0%)
Title : Full
Language : Russian
Default : No
Forced : No

Menu
00:00:00.000 : :Chapter 01
00:04:08.873 : :Chapter 02
00:10:11.819 : :Chapter 03
00:21:59.192 : :Chapter 04
00:27:46.998 : :Chapter 05
00:34:50.171 : :Chapter 06
00:47:09.034 : :Chapter 07
00:54:35.397 : :Chapter 08
01:01:08.665 : :Chapter 09
01:08:23.432 : :Chapter 10
01:17:54.836 : :Chapter 11
01:27:30.119 : :Chapter 12
01:31:16.220 : :Chapter 13
Скриншоты

 

Вложения

  • 118,1 KB Просмотры: 1
    Личеров 0
    Сидеров 0
    Файлов 1
    Объем 23,4 GB

Привет!

Мы группа людей которые решили помочь другим в решении их проблем, а так же пользователям с поиском самых свежих и качественных инфопродуктов. За 4 с небольшим месяца мы создали этот форум на который заходят ежедневно тысячи человек и посещаемость постоянно растёт. Мы создали панель лицензирования для защиты PHP скриптов от воровства и SEO панель для мониторинга наших сайтов и выбора верной стратегии их развития. Мы надеемся что то что мы создали пригодится Вам и возможно Вы поможете нам развиваться и совершенствоваться вместе с Вами.

Статистика форума

Темы
405.461
Сообщения
462.509
Пользователи
80.577
Новый пользователь
sv409

Приложения форума для iOS и Android


У ркн там нет власти ;)
Приватные разговоры
Помощь Пользователи
    Вы не присоединились ни к одной комнате.