За последнюю неделю опубликовано 84 новых материалов.
Инструкция новичку Путеводитель по форуму Прокси для Telegram Показать подсказки , это бомба!

Скачать Home Body - Spiritus (2019) FLAC бесплатно через торрент

  • Поучаствуй (в качестве покупателя) в любых пяти совместных покупках (кроме завершённых и "Моментальных") и получи группу "Новичок" навсегда -> ссылка на раздел
  • Получай до 480 рублей за каждого приглашенного пользователя!
    представляем Вам очередное расширение партнерской программы, подробности описаны тут -> ссылка
  • 90% материалов доступно к скачиванию после простой регистрации!
    Если же ты хочешь скачивать материалы без требования оставлять отзывы то получи группу "Новичок", 10 способов повышения описаны тут -> ссылка
  • К сожалению количество битых ссылок растет и мы уже не можем их оперативно восстанавливать поэтому просим помощи у каждого нашего пользователя.
    С сегодняшнего дня, за каждую восстановленную ссылку мы заплатим Вам.
    Подробнее тут -> ссылка
  • Перенесем твои заслуги с другого ресурса!
    Мы понимаем как сложно прокачивать аккаунты на форумах, вроде раскачал аккаунт, а тут появляется ресурс в 100 раз круче но тоже с системой прокачки и снова качать аккаунт...
    Предлагаем вам перенести Ваши заслуги на другом подобном ресурсе к нам.
    Подробности описаны тут -> ссылка
  • Вы можете получать по 2.5% с каждой покупки и продажи на маркете! Подробности в теме Партнёрская программа

Torrent_Bot

Торрент-Бот
Бот форума
4 Окт 2016
104
152
20



Исполнитель: Home Body
Название: Spiritus
Страна: USA
Жанр: Electronic-Pop, Dream-Pop, Experimental-Pop, Synth-Pop, New-Age
Год: 2019
Продолжительность: 00:37:23
Битрейт аудио: Lossless
Формат/Кодек: FLAC
Тип рипа: tracks+.cue


01. Sketch
02. Little Things
03. DNA
04. White Hands
05. Comet
06. Lightning
07. Undertow
08. Soft Stuff
Лог проверки качества
AUDIOCHECKER v2.0 beta (build 457) - by Dester - opdester@freemail.hu
~~~~~~~~~~~~~~~~~~~~~~~~~~~~~~~~~~

Started at: четверг, 30. 05. 2019. - 11:01.18
8 files found

1 -===- C:UsersUserDownloadsHome Body - Spiritus (2019) FLACtracks(01) [Home Body] Sketch.flac
Extracted successfully
Conclusion: this track is CDDA with probability 100%
Tempfile successfully deleted.

2 -===- C:UsersUserDownloadsHome Body - Spiritus (2019) FLACtracks(02) [Home Body] Little Things.flac
Extracted successfully
Conclusion: this track is CDDA with probability 100%
Tempfile successfully deleted.

3 -===- C:UsersUserDownloadsHome Body - Spiritus (2019) FLACtracks(03) [Home Body] DNA.flac
Extracted successfully
Conclusion: this track is CDDA with probability 100%
Tempfile successfully deleted.

4 -===- C:UsersUserDownloadsHome Body - Spiritus (2019) FLACtracks(04) [Home Body] White Hands.flac
Extracted successfully
Conclusion: this track is CDDA with probability 100%
Tempfile successfully deleted.

5 -===- C:UsersUserDownloadsHome Body - Spiritus (2019) FLACtracks(05) [Home Body] Comet.flac
Extracted successfully
Conclusion: this track is CDDA with probability 100%
Tempfile successfully deleted.

6 -===- C:UsersUserDownloadsHome Body - Spiritus (2019) FLACtracks(06) [Home Body] Lightning.flac
Extracted successfully
Conclusion: this track is CDDA with probability 100%
Tempfile successfully deleted.

7 -===- C:UsersUserDownloadsHome Body - Spiritus (2019) FLACtracks(07) [Home Body] Undertow.flac
Extracted successfully
Conclusion: this track is CDDA with probability 100%
Tempfile successfully deleted.

8 -===- C:UsersUserDownloadsHome Body - Spiritus (2019) FLACtracks(08) [Home Body] Soft Stuff.flac
Extracted successfully
Conclusion: this track is CDDA with probability 100%
Tempfile successfully deleted.


Finished at: четверг, 30. 05. 2019. - 11:02.41 (operation time: 0:01.23)
DR
foobar2000 1.4.4 / Замер динамического диапазона (DR) 1.1.1
Дата отчёта: 2019-05-30 11:01:07

--------------------------------------------------------------------------------
Анализ: Home Body / Spiritus
--------------------------------------------------------------------------------

DR Пики RMS Продолжительность трека
--------------------------------------------------------------------------------
DR4 -0.09 дБ -7.11 дБ 6:24 01-Sketch
DR4 -0.09 дБ -6.35 дБ 4:51 02-Little Things
DR6 -0.09 дБ -6.84 дБ 4:06 03-DNA
DR5 -0.09 дБ -7.58 дБ 4:21 04-White Hands
DR6 -0.09 дБ -6.60 дБ 3:31 05-Comet
DR5 -0.09 дБ -6.54 дБ 6:07 06-Lightning
DR6 -0.09 дБ -9.00 дБ 3:15 07-Undertow
DR5 -0.09 дБ -6.75 дБ 4:49 08-Soft Stuff
--------------------------------------------------------------------------------

Количество треков: 8
Реальные значения DR: DR5

Частота: 44100 Гц
Каналов: 2
Разрядность: 16
Битрейт: 889 кбит/с
Кодек: FLAC
================================================================================
 

Вложения

  • 20,1 KB Просмотры: 1
    Личеров 0
    Сидеров 0
    Файлов 11
    Объем 237,7 MB

Привет!

Мы группа людей которые решили помочь другим в решении их проблем, а так же пользователям с поиском самых свежих и качественных инфопродуктов. За 4 с небольшим месяца мы создали этот форум на который заходят ежедневно тысячи человек и посещаемость постоянно растёт. Мы создали панель лицензирования для защиты PHP скриптов от воровства и SEO панель для мониторинга наших сайтов и выбора верной стратегии их развития. Мы надеемся что то что мы создали пригодится Вам и возможно Вы поможете нам развиваться и совершенствоваться вместе с Вами.

Статистика форума

Темы
404.550
Сообщения
461.466
Пользователи
80.111
Новый пользователь
dapohui

Приложения форума для iOS и Android


У ркн там нет власти ;)
Приватные разговоры
Помощь Пользователи
    Вы не присоединились ни к одной комнате.